Вы используете незарегистрированную версию компонента "Вкладки"!

Поиск

(Free Jazz, Plainisphare) BBFC (Jean-Francois Bovard - Daniel Bourquin - Leon Francioli - Olivier Clerc) - Fantomes - 1990, FLAC (tracks+.cue), lossless

(Free Jazz, Plainisphare) BBFC (Jean-Francois Bovard - Daniel Bourquin - Leon Francioli - Olivier Clerc) - Fantomes - 1990, FLAC (tracks+.cue), lossless
Треклист:
BBFC / Fantômes
Жанр: Free Jazz, Plainisphare
Страна-производитель диска: Switzerland
Год издания: 1990
Издатель (лейбл): Plainisphare
Номер по каталогу: PL 1267-57 CD
Аудиокодек: FLAC (*.flac)
Тип рипа: tracks+.cue
Битрейт аудио: lossless
Продолжительность: 59:14
Источник (релизер): я
Наличие сканов в содержимом раздачи: да
Треклист:
1. Oh ! le beau château 2:05
2. Madame… pas vous ! 3:39
3. Othello au Congo 18:20
4. Vive la reine Lear ! 12:20
5. Fin de partie chez Mister Kane 4:23
6. Xanadu brûle-t-il ? 7:28
7. Rosebud 2:28
8. La Guerre des mondes 3:17
9. Tuez-moi demain ! Laissez-moi vivre cette nuit ! 5:15
Musique de Léon Francioli et Jean-François Bovard.
Spectacle enregistré en public au Centre d’art scénique contemporain ARSENIC à Lausanne en septembre 1990.
Jean-François Bovard – trombone
Daniel Bourquin – anches
Léon Francioli – contrebasse et orgue
Oliver Clerc – batterie et percussions
 
Лог создания рипа
Exact Audio Copy V1.0 beta 3 from 29. August 2011
EAC extraction logfile from 30. October 2013, 18:58
BBFC / Fantômes
Used drive : SlimtypeeNAU508 5 Adapter: 1 ID: 0
Read mode : Secure
Utilize accurate stream : Yes
Defeat audio cache : Yes
Make use of C2 pointers : No
Read offset correction : 6
Overread into Lead-In and Lead-Out : No
Fill up missing offset samples with silence : Yes
Delete leading and trailing silent blocks : No
Null samples used in CRC calculations : Yes
Used interface : Native Win32 interface for Win NT & 2000
Gap handling : Appended to previous track
Used output format : User Defined Encoder
Selected bitrate : 768 kBit/s
Quality : High
Add ID3 tag : No
Command line compressor : C:\Program Files (x86)\Exact Audio Copy\Flac\flac.exe
Additional command line options : -8 -V -T "ARTIST=%artist%" -T "TITLE=%title%" -T "ALBUM=%albumtitle%" -T "DATE=%year%" -T "TRACKNUMBER=%tracknr%" -T "GENRE=%genre%" -T "PERFORMER=%albuminterpret%" -T "COMPOSER=%composer%" %haslyrics%--tag-from-file=LYRICS="%lyricsfile%"%haslyrics% -T "ALBUMARTIST=%albumartist%" -T "DISCNUMBER=%cdnumber%" -T "TOTALDISCS=%totalcds%" -T "TOTALTRACKS=%numtracks%" -T "COMMENT=%comment%" %source% -o %dest%
TOC of the extracted CD
Track | Start | Length | Start sector | End sector
---------------------------------------------------------
1 | 0:00.00 | 2:04.62 | 0 | 9361
2 | 2:04.62 | 3:38.45 | 9362 | 25756
3 | 5:43.32 | 18:20.30 | 25757 | 108286
4 | 24:03.62 | 12:19.50 | 108287 | 163761
5 | 36:23.37 | 4:22.48 | 163762 | 183459
6 | 40:46.10 | 7:27.65 | 183460 | 217049
7 | 48:14.00 | 2:28.27 | 217050 | 228176
8 | 50:42.27 | 3:16.60 | 228177 | 242936
9 | 53:59.12 | 5:14.63 | 242937 | 266549
Track 1
Filename C:\EAC rips\01 - Oh ! le beau château.wav
Pre-gap length 0:00:02.00
Peak level 90.4 %
Extraction speed 0.8 X
Track quality 99.9 %
Test CRC DDE13CAD
Copy CRC DDE13CAD
Track not present in AccurateRip database
Copy OK
Track 2
Filename C:\EAC rips\02 - Madame... pas vous !.wav
Peak level 46.0 %
Extraction speed 1.1 X
Track quality 100.0 %
Test CRC 8C7FF02B
Copy CRC 8C7FF02B
Track not present in AccurateRip database
Copy OK
Track 3
Filename C:\EAC rips\03 - Othello au Congo.wav
Peak level 90.2 %
Extraction speed 1.6 X
Track quality 100.0 %
Test CRC 76DBFF14
Copy CRC 76DBFF14
Track not present in AccurateRip database
Copy OK
Track 4
Filename C:\EAC rips\04 - Vive la reine Lear !.wav
Peak level 90.0 %
Extraction speed 1.9 X
Track quality 99.9 %
Test CRC A8EABA65
Copy CRC A8EABA65
Track not present in AccurateRip database
Copy OK
Track 5
Filename C:\EAC rips\05 - Fin de partie chez Mister Kane.wav
Peak level 90.0 %
Extraction speed 1.9 X
Track quality 100.0 %
Test CRC 15791059
Copy CRC 15791059
Track not present in AccurateRip database
Copy OK
Track 6
Filename C:\EAC rips\06 - Xanadu brûle-t-il _.wav
Peak level 90.3 %
Extraction speed 2.0 X
Track quality 99.9 %
Test CRC 52FAE1DA
Copy CRC 52FAE1DA
Track not present in AccurateRip database
Copy OK
Track 7
Filename C:\EAC rips\07 - Rosebud.wav
Peak level 19.2 %
Extraction speed 1.6 X
Track quality 99.9 %
Test CRC D2A1FBF8
Copy CRC D2A1FBF8
Track not present in AccurateRip database
Copy OK
Track 8
Filename C:\EAC rips\08 - La Guerre des mondes.wav
Peak level 86.2 %
Extraction speed 2.1 X
Track quality 100.0 %
Test CRC DB46A856
Copy CRC DB46A856
Track not present in AccurateRip database
Copy OK
Track 9
Filename C:\EAC rips\09 - Tuez-moi demain ! Laissez-moi vivre cette nuit !.wav
Peak level 28.1 %
Extraction speed 2.3 X
Track quality 100.0 %
Test CRC D9F01848
Copy CRC D9F01848
Track not present in AccurateRip database
Copy OK
None of the tracks are present in the AccurateRip database
No errors occurred
End of status report
---- CUETools DB Plugin V2.1.4
[CTDB TOCID: kTGe4Rv9VECzu1G4fwxzT2jRmtg-] disk not present in database
Submit result: La demande a été abandonnée : La demande a été annulée.
==== Log checksum A07F1B99B0B72C71EBB31D3927C65BF647C45FD159D21C4CA6017A3785D023E3 ====
 
Содержание индексной карты (.CUE)
REM GENRE Jazz
REM DATE 1990
REM DISCID 750DE209
REM COMMENT "ExactAudioCopy v1.0b3"
PERFORMER "BBFC"
TITLE "Fantômes"
FILE "01 - Oh ! le beau château.wav" WAVE
TRACK 01 AUDIO
TITLE "Oh ! le beau château"
PERFORMER "BBFC"
INDEX 01 00:00:00
FILE "02 - Madame... pas vous !.wav" WAVE
TRACK 02 AUDIO
TITLE "Madame... pas vous !"
PERFORMER "BBFC"
INDEX 01 00:00:00
FILE "03 - Othello au Congo.wav" WAVE
TRACK 03 AUDIO
TITLE "Othello au Congo"
PERFORMER "BBFC"
INDEX 01 00:00:00
FILE "04 - Vive la reine Lear !.wav" WAVE
TRACK 04 AUDIO
TITLE "Vive la reine Lear !"
PERFORMER "BBFC"
INDEX 01 00:00:00
FILE "05 - Fin de partie chez Mister Kane.wav" WAVE
TRACK 05 AUDIO
TITLE "Fin de partie chez Mister Kane"
PERFORMER "BBFC"
INDEX 01 00:00:00
FILE "06 - Xanadu brûle-t-il _.wav" WAVE
TRACK 06 AUDIO
TITLE "Xanadu brûle-t-il ?"
PERFORMER "BBFC"
INDEX 01 00:00:00
FILE "07 - Rosebud.wav" WAVE
TRACK 07 AUDIO
TITLE "Rosebud"
PERFORMER "BBFC"
INDEX 01 00:00:00
FILE "08 - La Guerre des mondes.wav" WAVE
TRACK 08 AUDIO
TITLE "La Guerre des mondes"
PERFORMER "BBFC"
INDEX 01 00:00:00
FILE "09 - Tuez-moi demain ! Laissez-moi vivre cette nuit !.wav" WAVE
TRACK 09 AUDIO
TITLE "Tuez-moi demain ! Laissez-moi vivre cette nuit !"
PERFORMER "BBFC"
INDEX 01 00:00:00
Any questions -> support@pro-jazz.com. По всем вопросам пишите -> support@pro-jazz.com
20:26
182
Нет комментариев. Ваш будет первым!