Вы используете незарегистрированную версию компонента "Вкладки"!

Поиск

(Avant-Garde Jazz, Free Improvisation) Dewey Redman, Cecil Taylor, Elvin Jones - Momentum Space - 1998, FLAC (tracks+.cue), lossless

(Avant-Garde Jazz, Free Improvisation) Dewey Redman, Cecil Taylor, Elvin Jones - Momentum Space - 1998, FLAC (tracks+.cue), lossless
Треклист:
♦ Dewey Redman, Cecil Taylor, Elvin Jones - Momentum Space ♦
Жанр: Avant-Garde Jazz, Free Improvisation
Страна-производитель диска: Russia
Год издания: 1998
Издатель (лейбл): OOO "Фирма Грэмми"
Аудиокодек: FLAC (*.flac)
Тип рипа: tracks+.cue
Битрейт аудио: lossless
Продолжительность: 00:59:58
Источник (релизер): Рип с диска.
Наличие сканов в содержимом раздачи: да
Треклист:
01. Nine [10:53]
02. Bekei [04:20]
03. Spoonin' [07:27]
04. Life As [08:28]
05. It [07:15]
06. Is [20:47]
07. Dew [00:45]
 
Лог создания рипа
Exact Audio Copy V1.0 beta 3 from 29. August 2011
EAC extraction logfile from 12. November 2013, 16:54
Dewey Redman, Cecil Taylor & Elvin Jones / Momentum Space
Used drive : Optiarc DVD RW AD-5200A Adapter: 0 ID: 0
Read mode : Secure
Utilize accurate stream : Yes
Defeat audio cache : Yes
Make use of C2 pointers : No
Read offset correction : 48
Overread into Lead-In and Lead-Out : No
Fill up missing offset samples with silence : Yes
Delete leading and trailing silent blocks : No
Null samples used in CRC calculations : Yes
Used interface : Native Win32 interface for Win NT & 2000
Gap handling : Appended to previous track
Used output format : User Defined Encoder
Selected bitrate : 128 kBit/s
Quality : High
Add ID3 tag : No
Command line compressor : C:\Program Files\Exact Audio Copy\Flac\flac.exe
Additional command line options : -V -8 -T "Genre=%genre%" -T "Artist=%artist%" -T "Title=%title%" -T "Album=%albumtitle%" -T "Date=%year%" -T "Tracknumber=%tracknr%" -T "Comment=%comment%" %source%
TOC of the extracted CD
Track | Start | Length | Start sector | End sector
---------------------------------------------------------
1 | 0:00.00 | 10:53.37 | 0 | 49011
2 | 10:53.37 | 4:20.18 | 49012 | 68529
3 | 15:13.55 | 7:27.57 | 68530 | 102111
4 | 22:41.37 | 8:28.40 | 102112 | 140251
5 | 31:10.02 | 7:15.35 | 140252 | 172911
6 | 38:25.37 | 20:47.62 | 172912 | 266498
7 | 59:13.24 | 0:45.41 | 266499 | 269914
Track 1
Filename F:\Новая папка\01. Nine.wav
Pre-gap length 0:00:02.00
Peak level 99.9 %
Extraction speed 2.8 X
Track quality 100.0 %
Test CRC F055C46C
Copy CRC F055C46C
Cannot be verified as accurate (confidence 1) [3B1A5052], AccurateRip returned [46D87A22] (AR v2)
Copy OK
Track 2
Filename F:\Новая папка\02. Bekei.wav
Pre-gap length 0:00:03.02
Peak level 99.8 %
Extraction speed 2.6 X
Track quality 99.9 %
Test CRC 61BD4CF2
Copy CRC 61BD4CF2
Cannot be verified as accurate (confidence 1) [724D071E], AccurateRip returned [5EE559A4] (AR v2)
Copy OK
Track 3
Filename F:\Новая папка\03. Spoonin'.wav
Pre-gap length 0:00:04.03
Peak level 100.0 %
Extraction speed 3.4 X
Track quality 100.0 %
Test CRC EF454E6E
Copy CRC EF454E6E
Cannot be verified as accurate (confidence 1) [53BB43BA], AccurateRip returned [9426FF1D] (AR v2)
Copy OK
Track 4
Filename F:\Новая папка\04. Life As.wav
Pre-gap length 0:00:04.55
Peak level 100.0 %
Extraction speed 3.7 X
Track quality 100.0 %
Test CRC 103A88DD
Copy CRC 103A88DD
Cannot be verified as accurate (confidence 1) [F6F35EFC], AccurateRip returned [1D4F24A9] (AR v2)
Copy OK
Track 5
Filename F:\Новая папка\05. It.wav
Pre-gap length 0:00:02.32
Peak level 99.9 %
Extraction speed 3.7 X
Track quality 100.0 %
Test CRC C184D1A1
Copy CRC C184D1A1
Cannot be verified as accurate (confidence 1) [65A5C71E], AccurateRip returned [91474791] (AR v2)
Copy OK
Track 6
Filename F:\Новая папка\06. Is.wav
Pre-gap length 0:00:02.60
Peak level 100.0 %
Extraction speed 3.9 X
Track quality 100.0 %
Test CRC 3C3916D8
Copy CRC 3C3916D8
Cannot be verified as accurate (confidence 1) [F2C9A51E], AccurateRip returned [ADFA406B] (AR v2)
Copy OK
Track 7
Filename F:\Новая папка\07. Dew.wav
Pre-gap length 0:00:03.62
Peak level 96.0 %
Extraction speed 2.3 X
Track quality 100.0 %
Test CRC FA6034CD
Copy CRC FA6034CD
Cannot be verified as accurate (confidence 1) [FE0D6582], AccurateRip returned [442ACA94] (AR v2)
Copy OK
No tracks could be verified as accurate
You may have a different pressing from the one(s) in the database
No errors occurred
End of status report
==== Log checksum C90F5F7656DBC416A2263DCE046CBAA812C014869005922FBEB7A5ABBBB03020 ====
 
Содержание индексной карты (.CUE)
REM GENRE Jazz
REM DATE 1998
REM DISCID 5E0E0E07
REM COMMENT "ExactAudioCopy v1.0b3"
PERFORMER "Dewey Redman, Cecil Taylor & Elvin Jones"
TITLE "Momentum Space"
FILE "01. Nine.wav" WAVE
TRACK 01 AUDIO
TITLE "Nine"
PERFORMER "Dewey Redman, Cecil Taylor & Elvin Jones"
ISRC FRZ029802980
INDEX 01 00:00:00
TRACK 02 AUDIO
TITLE "Bekei"
PERFORMER "Dewey Redman, Cecil Taylor & Elvin Jones"
ISRC FRZ029802990
INDEX 00 10:50:35
FILE "02. Bekei.wav" WAVE
INDEX 01 00:00:00
TRACK 03 AUDIO
TITLE "Spoonin'"
PERFORMER "Dewey Redman, Cecil Taylor & Elvin Jones"
ISRC FRZ029803000
INDEX 00 04:16:15
FILE "03. Spoonin'.wav" WAVE
INDEX 01 00:00:00
TRACK 04 AUDIO
TITLE "Life As"
PERFORMER "Dewey Redman, Cecil Taylor & Elvin Jones"
ISRC FRZ029803010
INDEX 00 07:23:02
FILE "04. Life As.wav" WAVE
INDEX 01 00:00:00
TRACK 05 AUDIO
TITLE "It"
PERFORMER "Dewey Redman, Cecil Taylor & Elvin Jones"
ISRC FRZ029803020
INDEX 00 08:26:08
FILE "05. It.wav" WAVE
INDEX 01 00:00:00
TRACK 06 AUDIO
TITLE "Is"
PERFORMER "Dewey Redman, Cecil Taylor & Elvin Jones"
ISRC FRZ029803030
INDEX 00 07:12:50
FILE "06. Is.wav" WAVE
INDEX 01 00:00:00
TRACK 07 AUDIO
TITLE "Dew"
PERFORMER "Dewey Redman, Cecil Taylor & Elvin Jones"
ISRC FRZ029803040
INDEX 00 20:44:00
FILE "07. Dew.wav" WAVE
INDEX 01 00:00:00
 
Состав
Dewey Redman - ts
Cecil Taylor - p
Elvin Jones - dr
По всем вопросам пишите личное сообщение пользователю M0p94ok.
20:25
258
Нет комментариев. Ваш будет первым!