Вы используете незарегистрированную версию компонента "Вкладки"!

Поиск

(free jazz) Giuseppi Logan - More (1966), FLAC (tracks+.cue), lossless

(free jazz) Giuseppi Logan - More (1966), FLAC (tracks+.cue), lossless
Треклист:


Giuseppi Logan - More (1966)

Жанр: free jazz
Год выпуска: 1966, ESP
Издатель (лейбл):1993, Venus Records
Формат: FLAC (tracks+.cue)
Битрейт аудио: lossless
Продолжительность 39`01
Источник: what.cd, dotdash
Alto Saxophone, Bass Clarinet, Flute, Piano, Composed By – Giuseppi Logan
Drums, Percussion – Milford Graves
Piano – Don Pullen
Bass – Reggie Johnson (1,2), Wretched Sunday (4)

tracks

1 Mantu 6:11
2 Shebar 13:18
3 Curve Eleven 8:42
4 Wretched Sunday 10:48


 
.log
EAC extraction logfile from 17. February 2008, 19:35 for CD
Giuseppi Logan / More
Used drive : TEAC CD-W224E Adapter: 1 ID: 0
Read mode : Secure with NO C2, accurate stream, disable cache
Read offset correction : 685
Overread into Lead-In and Lead-Out : No
Used output format : C:\Program Files\Flac\bin\flac.exe (User Defined Encoder)
128 kBit/s
Additional command line options : -8 -V -T "ARTIST=%a" -T "TITLE=%t" -T "ALBUM=%g" -T "DATE=%y" -T "TRACKNUMBER=%n" -T "GENRE=%m" -T "COMMENT=EAC FLAC -8" %s
Other options :
Fill up missing offset samples with silence : Yes
Delete leading and trailing silent blocks : No
Installed external ASPI interface
Track 1
Filename C:\konwersja\Giuseppi Logan - More (1966) [FLAC]\01 - Mantu.wav
Pre-gap length 0:00:02.00
Peak level 89.9 %
Track quality 100.0 %
Test CRC BDE40B01
Copy CRC BDE40B01
Copy OK
Track 2
Filename C:\konwersja\Giuseppi Logan - More (1966) [FLAC]\02 - Shebar.wav
Pre-gap length 0:00:01.13
Peak level 64.7 %
Track quality 100.0 %
Test CRC F2926AE7
Copy CRC F2926AE7
Copy OK
Track 3
Filename C:\konwersja\Giuseppi Logan - More (1966) [FLAC]\03 - Curve Eleven.wav
Pre-gap length 0:00:03.90
Peak level 49.0 %
Track quality 100.0 %
Test CRC AB3F1C73
Copy CRC AB3F1C73
Copy OK
Track 4
Filename C:\konwersja\Giuseppi Logan - More (1966) [FLAC]\04 - Wretched Saturday.wav
Pre-gap length 0:00:00.93
Peak level 95.1 %
Track quality 100.0 %
Test CRC FD601C74
Copy CRC FD601C74
Copy OK
No errors occured
End of status report
 
.cue
REM GENRE Jazz
REM DATE 1966
REM DISCID 2D092404
REM COMMENT "ExactAudioCopy v0.95b3"
PERFORMER "Giuseppi Logan"
TITLE "More"
FILE "01 - Mantu.wav" WAVE
TRACK 01 AUDIO
TITLE "Mantu"
PERFORMER "Giuseppi Logan"
INDEX 01 00:00:00
TRACK 02 AUDIO
TITLE "Shebar"
PERFORMER "Giuseppi Logan"
INDEX 00 06:10:20
FILE "02 - Shebar.wav" WAVE
INDEX 01 00:00:00
TRACK 03 AUDIO
TITLE "Curve Eleven"
PERFORMER "Giuseppi Logan"
INDEX 00 13:14:47
FILE "03 - Curve Eleven.wav" WAVE
INDEX 01 00:00:00
TRACK 04 AUDIO
TITLE "Wretched Saturday"
PERFORMER "Giuseppi Logan"
INDEX 00 08:41:12
FILE "04 - Wretched Saturday.wav" WAVE
INDEX 01 00:00:00
 
.accurip
[CUETools log; Date: 13/11/13 01:04:06; Version: 2.1.4]
[CTDB TOCID: 3ImDL3tXQPl7_b.7HOhRffFVhkA-] disk not present in database.
[AccurateRip ID: 00066110-001a01ac-2d092404] found.
Track [ CRC | V2 ] Status
01 [c6239e20|491cb5d8] (1+0/1) Accurately ripped
02 [7cc0692c|bca15326] (1+0/1) Accurately ripped
03 [fddd8eae|fb014f2d] (1+0/1) Accurately ripped
04 [5bfaf32a|d93b048c] (1+0/1) Accurately ripped
Track Peak [ CRC32 ] [W/O NULL] [ LOG ]
-- 95.1 [669E6A86] [A1D6358A]
01 89.9 [BDE40B01] [F65E6DF8] CRC32
02 64.7 [F2926AE7] [80123AE7] CRC32
03 49.0 [AB3F1C73] [0A6E8F11] CRC32
04 95.1 [FD601C74] [27CA5803] CRC32

другие релизы
Any questions -> support@pro-jazz.com. По всем вопросам пишите -> support@pro-jazz.com
20:24
192
Нет комментариев. Ваш будет первым!