Вы используете незарегистрированную версию компонента "Вкладки"!

Поиск

(Avant-Garde, Free Improvisation, NotTwo Records) The Engines (Dave Rempis, Jeb Bishop, Nate McBride, Tim Daisy) w/ John Tchicai - Other Violets - 2013, FLAC (tracks+.cue), lossless

(Avant-Garde, Free Improvisation, NotTwo Records) The Engines (Dave Rempis, Jeb Bishop, Nate McBride, Tim Daisy) w/ John Tchicai - Other Violets - 2013, FLAC (tracks+.cue), lossless
Треклист:
The Engines w/ John Tchicai – Other Violets
Жанр: Avant-Garde, Free Improvisation, NotTwo Records
Страна-производитель диска: Poland
Год издания: 2013
Издатель (лейбл): NotTwo Records
Номер по каталогу: MW895-2
Аудиокодек: FLAC (*.flac)
Тип рипа: tracks+.cue
Битрейт аудио: lossless
Продолжительность: 1:07:19
Источник (релизер): я
Наличие сканов в содержимом раздачи: да
Треклист:
1. High and Low (Nate McBride) / Strafe (Dave Rempis) 15:14
2. Gloxinia (Tim Daisy) 13:37
3. Cool Copy (John Tchicai) / Looking (Jeb Bishop) 19:32
4. Super Orgasmic Life (John Tchicai) 8:23
5. Planet (Jeb Bishop) 10:34
Recorded May 15th, 2011, live at the Hungry Brain, Chicago.
John Tchicai – Tenor Saxophone and Flute
Dave Rempis – Alto and Tenor Saxophones
Jeb Bishop – Trombone
Nate McBride – Bass
Tim Daisy – Drums
 
Лог создания рипа
Exact Audio Copy V1.0 beta 3 from 29. August 2011
EAC extraction logfile from 12. November 2013, 13:01
The Engines with John Tchicai / Other Violets
Used drive : SlimtypeeNAU508 5 Adapter: 1 ID: 0
Read mode : Secure
Utilize accurate stream : Yes
Defeat audio cache : Yes
Make use of C2 pointers : No
Read offset correction : 6
Overread into Lead-In and Lead-Out : No
Fill up missing offset samples with silence : Yes
Delete leading and trailing silent blocks : No
Null samples used in CRC calculations : Yes
Used interface : Native Win32 interface for Win NT & 2000
Gap handling : Appended to previous track
Used output format : User Defined Encoder
Selected bitrate : 768 kBit/s
Quality : High
Add ID3 tag : No
Command line compressor : C:\Program Files (x86)\Exact Audio Copy\Flac\flac.exe
Additional command line options : -8 -V -T "ARTIST=%artist%" -T "TITLE=%title%" -T "ALBUM=%albumtitle%" -T "DATE=%year%" -T "TRACKNUMBER=%tracknr%" -T "GENRE=%genre%" -T "PERFORMER=%albuminterpret%" -T "COMPOSER=%composer%" %haslyrics%--tag-from-file=LYRICS="%lyricsfile%"%haslyrics% -T "ALBUMARTIST=%albumartist%" -T "DISCNUMBER=%cdnumber%" -T "TOTALDISCS=%totalcds%" -T "TOTALTRACKS=%numtracks%" -T "COMMENT=%comment%" %source% -o %dest%
TOC of the extracted CD
Track | Start | Length | Start sector | End sector
---------------------------------------------------------
1 | 0:00.00 | 15:13.69 | 0 | 68543
2 | 15:13.69 | 13:36.41 | 68544 | 129784
3 | 28:50.35 | 19:31.70 | 129785 | 217679
4 | 48:22.30 | 8:23.13 | 217680 | 255417
5 | 56:45.43 | 10:33.42 | 255418 | 302934
Track 1
Filename C:\EAC rips\01 - High and Low - Strafe.wav
Pre-gap length 0:00:02.00
Peak level 98.4 %
Extraction speed 2.8 X
Track quality 100.0 %
Test CRC 5D4C8081
Copy CRC 5D4C8081
Track not present in AccurateRip database
Copy OK
Track 2
Filename C:\EAC rips\02 - Gloxinia.wav
Pre-gap length 0:00:02.06
Peak level 96.3 %
Extraction speed 3.6 X
Track quality 100.0 %
Test CRC 28114CCB
Copy CRC 28114CCB
Track not present in AccurateRip database
Copy OK
Track 3
Filename C:\EAC rips\03 - Cool Copy - Looking.wav
Pre-gap length 0:00:01.00
Peak level 99.9 %
Extraction speed 4.1 X
Track quality 99.9 %
Test CRC 3CB8C43D
Copy CRC 3CB8C43D
Track not present in AccurateRip database
Copy OK
Track 4
Filename C:\EAC rips\04 - Super Orgasmic Life.wav
Pre-gap length 0:00:00.67
Peak level 99.9 %
Extraction speed 4.5 X
Track quality 100.0 %
Test CRC 0064B17D
Copy CRC 0064B17D
Track not present in AccurateRip database
Copy OK
Track 5
Filename C:\EAC rips\05 - Planet.wav
Peak level 99.2 %
Extraction speed 4.9 X
Track quality 100.0 %
Test CRC CD58AF3A
Copy CRC CD58AF3A
Track not present in AccurateRip database
Copy OK
None of the tracks are present in the AccurateRip database
No errors occurred
End of status report
---- CUETools DB Plugin V2.1.4
[CTDB TOCID: Elt_2T1V05OYZKracOjOAQW162Q-] disk not present in database
Submit result: Le délai d'attente de l'opération a expiré.
==== Log checksum 1E6656300F54179918EB3922DA13C3986D1F218FC9A32F0117522771DAE3A476 ====
 
Содержание индексной карты (.CUE)
REM GENRE Jazz
REM DATE 2013
REM DISCID 3B0FC705
REM COMMENT "ExactAudioCopy v1.0b3"
PERFORMER "The Engines with John Tchicai"
TITLE "Other Violets"
FILE "01 - High and Low - Strafe.wav" WAVE
TRACK 01 AUDIO
TITLE "High and Low / Strafe"
PERFORMER "The Engines with John Tchicai"
INDEX 01 00:00:00
TRACK 02 AUDIO
TITLE "Gloxinia"
PERFORMER "The Engines with John Tchicai"
INDEX 00 15:11:63
FILE "02 - Gloxinia.wav" WAVE
INDEX 01 00:00:00
TRACK 03 AUDIO
TITLE "Cool Copy / Looking"
PERFORMER "The Engines with John Tchicai"
INDEX 00 13:35:41
FILE "03 - Cool Copy - Looking.wav" WAVE
INDEX 01 00:00:00
TRACK 04 AUDIO
TITLE "Super Orgasmic Life"
PERFORMER "The Engines with John Tchicai"
INDEX 00 19:31:03
FILE "04 - Super Orgasmic Life.wav" WAVE
INDEX 01 00:00:00
FILE "05 - Planet.wav" WAVE
TRACK 05 AUDIO
TITLE "Planet"
PERFORMER "The Engines with John Tchicai"
INDEX 01 00:00:00
Any questions -> support@pro-jazz.com. По всем вопросам пишите -> support@pro-jazz.com
20:23
194
Нет комментариев. Ваш будет первым!