Вы используете незарегистрированную версию компонента "Вкладки"!

Поиск

(Contemporary Jazz, Plainisphare) Le Quintette Popolien (Jean-Francois Bovard, Hans Koch, Michel Bastet, Popol Lavanchy, Olivier Clerc) - Mes dix doigts dans ton nez - 1989, FLAC (tracks+.cue), lossless

(Contemporary Jazz, Plainisphare) Le Quintette Popolien (Jean-Francois Bovard, Hans Koch, Michel Bastet, Popol Lavanchy, Olivier Clerc) - Mes dix doigts dans ton nez - 1989, FLAC (tracks+.cue), lossless
Треклист:
Le Quintette Popolien / Mes dix doigts dans ton nez
Жанр: Contemporary Jazz, Plainisphare
Страна-производитель диска: Switzerland
Год издания: 1989
Издатель (лейбл): Plainisphare
Номер по каталогу: PL 1267-42 CD
Аудиокодек: FLAC (*.flac)
Тип рипа: tracks+.cue
Битрейт аудио: lossless
Продолжительность: 1:03:32
Источник (релизер): я
Наличие сканов в содержимом раздачи: нет
Треклист:
1. Mes dix doigts dans ton nez 13:41
2. La Valse du bovairon 5:37
3. Neige d’hiver 7:59
4. Bébé bourdon 11:08
5. Saint Hippolyte 12:03
6. Locomélodie émotive 13:04
Compositions de Popol Lavanchy.
Jean-François Bovard – trombone
Hans Koch – clarinette basse, saxophone soprano, saxophone ténor
Michel Bastet – piano
Popol Lavanchy – contrebasse
Olivier Clerc – batterie
 
Лог создания рипа
Exact Audio Copy V1.0 beta 3 from 29. August 2011
EAC extraction logfile from 19. October 2013, 22:20
Le Quintette Popolien / Mes dix doigts dans ton nez
Used drive : SlimtypeeNAU508 5 Adapter: 1 ID: 0
Read mode : Secure
Utilize accurate stream : Yes
Defeat audio cache : Yes
Make use of C2 pointers : No
Read offset correction : 6
Overread into Lead-In and Lead-Out : No
Fill up missing offset samples with silence : Yes
Delete leading and trailing silent blocks : No
Null samples used in CRC calculations : Yes
Used interface : Native Win32 interface for Win NT & 2000
Gap handling : Appended to previous track
Used output format : User Defined Encoder
Selected bitrate : 768 kBit/s
Quality : High
Add ID3 tag : No
Command line compressor : C:\Program Files (x86)\Exact Audio Copy\Flac\flac.exe
Additional command line options : -8 -V -T "ARTIST=%artist%" -T "TITLE=%title%" -T "ALBUM=%albumtitle%" -T "DATE=%year%" -T "TRACKNUMBER=%tracknr%" -T "GENRE=%genre%" -T "PERFORMER=%albuminterpret%" -T "COMPOSER=%composer%" %haslyrics%--tag-from-file=LYRICS="%lyricsfile%"%haslyrics% -T "ALBUMARTIST=%albumartist%" -T "DISCNUMBER=%cdnumber%" -T "TOTALDISCS=%totalcds%" -T "TOTALTRACKS=%numtracks%" -T "COMMENT=%comment%" %source% -o %dest%
TOC of the extracted CD
Track | Start | Length | Start sector | End sector
---------------------------------------------------------
1 | 0:00.33 | 13:41.37 | 33 | 61644
2 | 13:41.70 | 5:36.68 | 61645 | 86912
3 | 19:18.63 | 7:58.62 | 86913 | 122824
4 | 27:17.50 | 11:07.40 | 122825 | 172889
5 | 38:25.15 | 12:02.55 | 172890 | 227094
6 | 50:27.70 | 13:04.05 | 227095 | 285899
Track 1
Filename C:\EAC rips\01 - Mes dix doigts dans ton nez.wav
Pre-gap length 0:00:02.33
Peak level 81.8 %
Extraction speed 1.4 X
Track quality 99.9 %
Test CRC DDA72152
Copy CRC DDA72152
Track not present in AccurateRip database
Copy OK
Track 2
Filename C:\EAC rips\02 - La Valse du bovairon.wav
Pre-gap length 0:00:04.12
Peak level 91.9 %
Extraction speed 1.6 X
Track quality 100.0 %
Test CRC FE78E6F6
Copy CRC FE78E6F6
Track not present in AccurateRip database
Copy OK
Track 3
Filename C:\EAC rips\03 - Neige d'hiver.wav
Pre-gap length 0:00:04.13
Peak level 96.8 %
Extraction speed 1.8 X
Track quality 100.0 %
Test CRC 0069C372
Copy CRC 0069C372
Track not present in AccurateRip database
Copy OK
Track 4
Filename C:\EAC rips\04 - Bébé bourdon.wav
Pre-gap length 0:00:04.12
Peak level 88.9 %
Extraction speed 2.1 X
Track quality 100.0 %
Test CRC 6A8E3B71
Copy CRC 6A8E3B71
Track not present in AccurateRip database
Copy OK
Track 5
Filename C:\EAC rips\05 - Saint Hippolyte.wav
Pre-gap length 0:00:04.12
Peak level 96.0 %
Extraction speed 2.2 X
Track quality 99.9 %
Test CRC 73CB4A58
Copy CRC 73CB4A58
Track not present in AccurateRip database
Copy OK
Track 6
Filename C:\EAC rips\06 - Locomélodie émotive.wav
Pre-gap length 0:00:04.12
Peak level 96.7 %
Extraction speed 2.5 X
Track quality 100.0 %
Test CRC 5BCC94FA
Copy CRC 5BCC94FA
Track not present in AccurateRip database
Copy OK
None of the tracks are present in the AccurateRip database
No errors occurred
End of status report
---- CUETools DB Plugin V2.1.4
[CTDB TOCID: GJTB6i0UKsR0cSQmLw05mYdrEsM-] disk not present in database
Submit result: Le délai d'attente de l'opération a expiré.
==== Log checksum 102F27BF18A75CCC760AB75F87080759404913D3A91777CBD88BDB23E294A993 ====
 
Содержание индексной карты (.CUE)
REM GENRE Jazz
REM DATE 1989
REM DISCID 440EE406
REM COMMENT "ExactAudioCopy v1.0b3"
PERFORMER "Le Quintette Popolien"
TITLE "Mes dix doigts dans ton nez"
FILE "01 - Mes dix doigts dans ton nez.wav" WAVE
TRACK 01 AUDIO
TITLE "Mes dix doigts dans ton nez"
PERFORMER "Le Quintette Popolien"
PREGAP 00:00:33
INDEX 01 00:00:00
TRACK 02 AUDIO
TITLE "La Valse du bovairon"
PERFORMER "Le Quintette Popolien"
INDEX 00 13:37:25
FILE "02 - La Valse du bovairon.wav" WAVE
INDEX 01 00:00:00
TRACK 03 AUDIO
TITLE "Neige d'hiver"
PERFORMER "Le Quintette Popolien"
INDEX 00 05:32:55
FILE "03 - Neige d'hiver.wav" WAVE
INDEX 01 00:00:00
TRACK 04 AUDIO
TITLE "Bébé bourdon"
PERFORMER "Le Quintette Popolien"
INDEX 00 07:54:50
FILE "04 - Bébé bourdon.wav" WAVE
INDEX 01 00:00:00
TRACK 05 AUDIO
TITLE "Saint Hippolyte"
PERFORMER "Le Quintette Popolien"
INDEX 00 11:03:28
FILE "05 - Saint Hippolyte.wav" WAVE
INDEX 01 00:00:00
TRACK 06 AUDIO
TITLE "Locomélodie émotive"
PERFORMER "Le Quintette Popolien"
INDEX 00 11:58:43
FILE "06 - Locomélodie émotive.wav" WAVE
INDEX 01 00:00:00
По всем вопросам пишите личное сообщение пользователю M0p94ok.
20:23
176
Нет комментариев. Ваш будет первым!