Вы используете незарегистрированную версию компонента "Вкладки"!

Поиск

(Avant-Garde Jazz, Free Improvisation) Lester Bowie - The Complete Remastered Recordings On Black Saint & Soul Note {3CD} - 2010, FLAC (tracks+.cue), lossless

(Avant-Garde Jazz, Free Improvisation) Lester Bowie - The Complete Remastered Recordings On Black Saint & Soul Note {3CD} - 2010, FLAC (tracks+.cue), lossless
Издатель (лейбл):
Треклист:
♦ Lester Bowie - The Complete Remastered Recordings On Black Saint & Soul Note {3CD} ♦
Жанр: Avant-Garde Jazz, Free Improvisation
Год издания: 2010
Издатель (лейбл): Cam London
Номер по каталогу: BXS 1006
Аудиокодек: FLAC (*.flac)
Тип рипа: tracks+.cue
Битрейт аудио: lossless
Продолжительность: 02:17:09
Источник (релизер): ruskaval
Наличие сканов в содержимом раздачи: да
 
♦ CD1 - The 5th Power (00:45:01)
Треклист:

01. Sardegna Amore (Now Is Full Of Lonely People) [06:22]
02. 3 In 1 (Three In One) [09:35]
03. BBB (Duet) [05:57]
04. God Has Smiled On Me (Traditional Gospel) [18:05]
05. The 5th Power (Finale) [04:59]
 
Лог создания рипа
Exact Audio Copy V1.0 beta 1 from 15. November 2010
EAC extraction logfile from 31. December 2011, 10:46
Lester Bowie / Complete Black Saint & Soul Note
Used drive : TSSTcorpCDDVDW SH-S203N Adapter: 0 ID: 2
Read mode : Secure
Utilize accurate stream : Yes
Defeat audio cache : Yes
Make use of C2 pointers : No
Read offset correction : 6
Overread into Lead-In and Lead-Out : No
Fill up missing offset samples with silence : Yes
Delete leading and trailing silent blocks : No
Null samples used in CRC calculations : Yes
Used interface : Installed external ASPI interface
Gap handling : Appended to previous track
Used output format : User Defined Encoder
Selected bitrate : 768 kBit/s
Quality : High
Add ID3 tag : No
Command line compressor : C:\Program Files\Exact Audio Copy-NEW\Flac\flac.exe
Additional command line options : -8 -V -T "ARTIST=%a" -T "TITLE=%t" -T "ALBUM=%g" -T "DATE=%y" -T "TRACKNUMBER=%n" -T "TOTALTRACKS=%x" -T "GENRE=%m" -T "ALBUMARTIST=%v" -T "ALBUM ARTIST=%v" -T "COMMENT=EAC V1.01b1, Secure Mode, Test & Copy, AccurateRip, FL
TOC of the extracted CD
Track | Start | Length | Start sector | End sector
---------------------------------------------------------
1 | 0:00.00 | 6:22.62 | 0 | 28711
2 | 6:22.62 | 9:35.39 | 28712 | 71875
3 | 15:58.26 | 5:57.47 | 71876 | 98697
4 | 21:55.73 | 18:05.10 | 98698 | 180082
5 | 40:01.08 | 4:59.71 | 180083 | 202578
Track 1
Filename J:\New Rips\Lester Bowie - Complete Black Saint & Soul Note (2010) [FLAC]\disc 1of3\01 - Sardegna Amore.wav
Pre-gap length 0:00:02.00
Peak level 95.2 %
Extraction speed 4.7 X
Track quality 100.0 %
Test CRC B4C110FB
Copy CRC B4C110FB
Accurately ripped (confidence 1) [A40D76AA]
Copy OK
Track 2
Filename J:\New Rips\Lester Bowie - Complete Black Saint & Soul Note (2010) [FLAC]\disc 1of3\02 - 3 In 1.wav
Peak level 95.2 %
Extraction speed 5.9 X
Track quality 100.0 %
Test CRC 25F83569
Copy CRC 25F83569
Accurately ripped (confidence 1) [B70E75A4]
Copy OK
Track 3
Filename J:\New Rips\Lester Bowie - Complete Black Saint & Soul Note (2010) [FLAC]\disc 1of3\03 - BBB.wav
Peak level 95.2 %
Extraction speed 5.4 X
Track quality 99.9 %
Test CRC 20ECF6E9
Copy CRC 20ECF6E9
Cannot be verified as accurate (confidence 1) [550389DC], AccurateRip returned [755F26B6]
Copy OK
Track 4
Filename J:\New Rips\Lester Bowie - Complete Black Saint & Soul Note (2010) [FLAC]\disc 1of3\04 - God Has Smiled On Me.wav
Peak level 95.3 %
Extraction speed 8.0 X
Track quality 100.0 %
Test CRC 1D3C9B1D
Copy CRC 1D3C9B1D
Accurately ripped (confidence 1) [F66DE833]
Copy OK
Track 5
Filename J:\New Rips\Lester Bowie - Complete Black Saint & Soul Note (2010) [FLAC]\disc 1of3\05 - The 5th Power.wav
Peak level 95.3 %
Extraction speed 8.2 X
Track quality 100.0 %
Test CRC 12C672F5
Copy CRC 12C672F5
Accurately ripped (confidence 1) [D8693568]
Copy OK
4 track(s) accurately ripped
1 track(s) could not be verified as accurate
Some tracks could not be verified as accurate
No errors occurred
End of status report
==== Log checksum 0EE6FCD9FA63EC3A5EC404364D22C92118E745C33B37B9EB9C4E39E939121EB7 ====
 
Содержание индексной карты (.CUE)
REM GENRE Jazz
REM DATE 2010
REM DISCID 350A8D05
REM COMMENT "ExactAudioCopy v1.0b1"
PERFORMER "Lester Bowie"
TITLE "Complete Black Saint & Soul Note"
FILE "01 - Sardegna Amore.wav" WAVE
TRACK 01 AUDIO
TITLE "Sardegna Amore"
PERFORMER "Lester Bowie"
FLAGS DCP
INDEX 01 00:00:00
FILE "02 - 3 In 1.wav" WAVE
TRACK 02 AUDIO
TITLE "3 In 1"
PERFORMER "Lester Bowie"
FLAGS DCP
INDEX 01 00:00:00
FILE "03 - BBB.wav" WAVE
TRACK 03 AUDIO
TITLE "BBB"
PERFORMER "Lester Bowie"
FLAGS DCP
INDEX 01 00:00:00
FILE "04 - God Has Smiled On Me.wav" WAVE
TRACK 04 AUDIO
TITLE "God Has Smiled On Me"
PERFORMER "Lester Bowie"
FLAGS DCP
INDEX 01 00:00:00
FILE "05 - The 5th Power.wav" WAVE
TRACK 05 AUDIO
TITLE "The 5th Power"
PERFORMER "Lester Bowie"
FLAGS DCP
INDEX 01 00:00:00
 
♦ CD2 - Out Here Like This...(00:46:56)
Треклист:

01. Zero [07:57]
02. Luna [06:35]
03. Cool T [05:18]
04. Donkey Dust [07:10]
05. Portraits [07:57]
06. Félicité [06:04]
07. Loves I Once Knew [05:52]
 
Лог создания рипа
Exact Audio Copy V1.0 beta 1 from 15. November 2010
EAC extraction logfile from 31. December 2011, 13:01
Lester Bowie / Complete Black Saint & Soul Note
Used drive : TSSTcorpCDDVDW SH-S203N Adapter: 0 ID: 2
Read mode : Secure
Utilize accurate stream : Yes
Defeat audio cache : Yes
Make use of C2 pointers : No
Read offset correction : 6
Overread into Lead-In and Lead-Out : No
Fill up missing offset samples with silence : Yes
Delete leading and trailing silent blocks : No
Null samples used in CRC calculations : Yes
Used interface : Installed external ASPI interface
Gap handling : Appended to previous track
Used output format : User Defined Encoder
Selected bitrate : 768 kBit/s
Quality : High
Add ID3 tag : No
Command line compressor : C:\Program Files\Exact Audio Copy-NEW\Flac\flac.exe
Additional command line options : -8 -V -T "ARTIST=%a" -T "TITLE=%t" -T "ALBUM=%g" -T "DATE=%y" -T "TRACKNUMBER=%n" -T "TOTALTRACKS=%x" -T "GENRE=%m" -T "ALBUMARTIST=%v" -T "ALBUM ARTIST=%v" -T "COMMENT=EAC V1.01b1, Secure Mode, Test & Copy, AccurateRip, FL
TOC of the extracted CD
Track | Start | Length | Start sector | End sector
---------------------------------------------------------
1 | 0:00.00 | 7:57.00 | 0 | 35774
2 | 7:57.00 | 6:35.38 | 35775 | 65437
3 | 14:32.38 | 5:18.27 | 65438 | 89314
4 | 19:50.65 | 7:10.12 | 89315 | 121576
5 | 27:01.02 | 7:57.49 | 121577 | 157400
6 | 34:58.51 | 6:04.66 | 157401 | 184766
7 | 41:03.42 | 5:52.71 | 184767 | 211237
Track 1
Filename J:\New Rips\Lester Bowie - Complete Black Saint & Soul Note (2010) [FLAC]\disc 2of3\01 - Zero.wav
Pre-gap length 0:00:02.00
Peak level 95.2 %
Extraction speed 5.0 X
Track quality 100.0 %
Test CRC A39E33DC
Copy CRC A39E33DC
Accurately ripped (confidence 1) [03F07F72]
Copy OK
Track 2
Filename J:\New Rips\Lester Bowie - Complete Black Saint & Soul Note (2010) [FLAC]\disc 2of3\02 - Luna.wav
Pre-gap length 0:00:03.39
Peak level 95.2 %
Extraction speed 5.0 X
Track quality 99.9 %
Test CRC 10F5D992
Copy CRC 10F5D992
Accurately ripped (confidence 1) [01EDDE06]
Copy OK
Track 3
Filename J:\New Rips\Lester Bowie - Complete Black Saint & Soul Note (2010) [FLAC]\disc 2of3\03 - Cool T.wav
Pre-gap length 0:00:04.20
Peak level 95.2 %
Extraction speed 6.2 X
Track quality 100.0 %
Test CRC 4D68587A
Copy CRC 4D68587A
Accurately ripped (confidence 1) [B15AD890]
Copy OK
Track 4
Filename J:\New Rips\Lester Bowie - Complete Black Saint & Soul Note (2010) [FLAC]\disc 2of3\04 - Donkey Dust.wav
Pre-gap length 0:00:02.43
Peak level 95.2 %
Extraction speed 7.0 X
Track quality 100.0 %
Test CRC 7792ECDF
Copy CRC 7792ECDF
Accurately ripped (confidence 1) [5A70F3C8]
Copy OK
Track 5
Filename J:\New Rips\Lester Bowie - Complete Black Saint & Soul Note (2010) [FLAC]\disc 2of3\05 - Portraits.wav
Pre-gap length 0:00:04.02
Peak level 95.2 %
Extraction speed 7.7 X
Track quality 100.0 %
Test CRC A6BF878F
Copy CRC A6BF878F
Accurately ripped (confidence 1) [142D2088]
Copy OK
Track 6
Filename J:\New Rips\Lester Bowie - Complete Black Saint & Soul Note (2010) [FLAC]\disc 2of3\06 - Felicite.wav
Pre-gap length 0:00:01.54
Peak level 95.2 %
Extraction speed 8.0 X
Track quality 100.0 %
Test CRC 50CD48C2
Copy CRC 50CD48C2
Accurately ripped (confidence 1) [66058684]
Copy OK
Track 7
Filename J:\New Rips\Lester Bowie - Complete Black Saint & Soul Note (2010) [FLAC]\disc 2of3\07 - Loves I Once Knew.wav
Pre-gap length 0:00:05.16
Peak level 95.2 %
Extraction speed 8.5 X
Track quality 100.0 %
Test CRC 77032F95
Copy CRC 77032F95
Accurately ripped (confidence 1) [608E5708]
Copy OK
All tracks accurately ripped
No errors occurred
End of status report
==== Log checksum DD2450A5229796FCD12343576D73649A5460C80E3716011924948307658746BB ====
 
Содержание индексной карты (.CUE)
REM GENRE Jazz
REM DATE 2010
REM DISCID 560B0007
REM COMMENT "ExactAudioCopy v1.0b1"
PERFORMER "Lester Bowie"
TITLE "Complete Black Saint & Soul Note"
FILE "01 - Zero.wav" WAVE
TRACK 01 AUDIO
TITLE "Zero"
PERFORMER "Lester Bowie"
FLAGS DCP
INDEX 01 00:00:00
TRACK 02 AUDIO
TITLE "Luna"
PERFORMER "Lester Bowie"
FLAGS DCP
INDEX 00 07:53:36
FILE "02 - Luna.wav" WAVE
INDEX 01 00:00:00
TRACK 03 AUDIO
TITLE "Cool T"
PERFORMER "Lester Bowie"
FLAGS DCP
INDEX 00 06:31:18
FILE "03 - Cool T.wav" WAVE
INDEX 01 00:00:00
TRACK 04 AUDIO
TITLE "Donkey Dust"
PERFORMER "Lester Bowie"
FLAGS DCP
INDEX 00 05:15:59
FILE "04 - Donkey Dust.wav" WAVE
INDEX 01 00:00:00
TRACK 05 AUDIO
TITLE "Portraits"
PERFORMER "Lester Bowie"
FLAGS DCP
INDEX 00 07:06:10
FILE "05 - Portraits.wav" WAVE
INDEX 01 00:00:00
TRACK 06 AUDIO
TITLE "Felicite"
PERFORMER "Lester Bowie"
FLAGS DCP
INDEX 00 07:55:70
FILE "06 - Felicite.wav" WAVE
INDEX 01 00:00:00
TRACK 07 AUDIO
TITLE "Loves I Once Knew"
PERFORMER "Lester Bowie"
FLAGS DCP
INDEX 00 05:59:50
FILE "07 - Loves I Once Knew.wav" WAVE
INDEX 01 00:00:00
 
♦ CD3 - Unforeseen Blessings(00:45:12)
Треклист:

01. In A Minute [02:49]
02. Hip Dripper [03:34]
03. Sun Precondition Five [00:38]
04. The Search [02:48]
05. Lightish [01:22]
06. Sun Precondition Six [00:18]
07. Peacemaker [06:34]
08. Wait A Minute [02:35]
09. Agadir [01:36]
10. Heaven Dance [09:47]
11. Now A Moment [00:48]
12. Lucia [07:34]
13. Blueberry Hill [04:43]
 
Лог создания рипа
Exact Audio Copy V1.0 beta 1 from 15. November 2010
EAC extraction logfile from 31. December 2011, 15:31
Lester Bowie / Complete Black Saint & Soul Note
Used drive : TSSTcorpCDDVDW SH-S203N Adapter: 0 ID: 2
Read mode : Secure
Utilize accurate stream : Yes
Defeat audio cache : Yes
Make use of C2 pointers : No
Read offset correction : 6
Overread into Lead-In and Lead-Out : No
Fill up missing offset samples with silence : Yes
Delete leading and trailing silent blocks : No
Null samples used in CRC calculations : Yes
Used interface : Installed external ASPI interface
Gap handling : Appended to previous track
Used output format : User Defined Encoder
Selected bitrate : 768 kBit/s
Quality : High
Add ID3 tag : No
Command line compressor : C:\Program Files\Exact Audio Copy-NEW\Flac\flac.exe
Additional command line options : -8 -V -T "ARTIST=%a" -T "TITLE=%t" -T "ALBUM=%g" -T "DATE=%y" -T "TRACKNUMBER=%n" -T "TOTALTRACKS=%x" -T "GENRE=%m" -T "ALBUMARTIST=%v" -T "ALBUM ARTIST=%v" -T "COMMENT=EAC V1.01b1, Secure Mode, Test & Copy, AccurateRip, FL
TOC of the extracted CD
Track | Start | Length | Start sector | End sector
---------------------------------------------------------
1 | 0:00.00 | 2:49.64 | 0 | 12738
2 | 2:49.64 | 3:34.21 | 12739 | 28809
3 | 6:24.10 | 0:38.21 | 28810 | 31680
4 | 7:02.31 | 2:48.18 | 31681 | 44298
5 | 9:50.49 | 1:22.18 | 44299 | 50466
6 | 11:12.67 | 0:18.30 | 50467 | 51846
7 | 11:31.22 | 6:34.46 | 51847 | 81442
8 | 18:05.68 | 2:35.12 | 81443 | 93079
9 | 20:41.05 | 1:36.34 | 93080 | 100313
10 | 22:17.39 | 9:47.40 | 100314 | 144378
11 | 32:05.04 | 0:48.64 | 144379 | 148042
12 | 32:53.68 | 7:34.73 | 148043 | 182165
13 | 40:28.66 | 4:43.23 | 182166 | 203413
Track 1
Filename J:\New Rips\Lester Bowie - Complete Black Saint & Soul Note (2010) [FLAC]\disc 3of3\01 - In A Minute.wav
Pre-gap length 0:00:02.00
Peak level 95.2 %
Extraction speed 4.0 X
Track quality 100.0 %
Test CRC 76472F5E
Copy CRC 76472F5E
Accurately ripped (confidence 1) [74A89810]
Copy OK
Track 2
Filename J:\New Rips\Lester Bowie - Complete Black Saint & Soul Note (2010) [FLAC]\disc 3of3\02 - Hip Dripper.wav
Pre-gap length 0:00:04.00
Peak level 95.2 %
Extraction speed 4.6 X
Track quality 100.0 %
Test CRC E7702417
Copy CRC E7702417
Accurately ripped (confidence 1) [89C04D25]
Copy OK
Track 3
Filename J:\New Rips\Lester Bowie - Complete Black Saint & Soul Note (2010) [FLAC]\disc 3of3\03 - Sun Precondition Five.wav
Peak level 95.2 %
Extraction speed 2.8 X
Track quality 100.0 %
Test CRC 7EE8A4F9
Copy CRC 7EE8A4F9
Accurately ripped (confidence 1) [DE658927]
Copy OK
Track 4
Filename J:\New Rips\Lester Bowie - Complete Black Saint & Soul Note (2010) [FLAC]\disc 3of3\04 - The Search.wav
Pre-gap length 0:00:00.30
Peak level 42.6 %
Extraction speed 4.8 X
Track quality 100.0 %
Test CRC C7384850
Copy CRC C7384850
Accurately ripped (confidence 1) [BCE8B671]
Copy OK
Track 5
Filename J:\New Rips\Lester Bowie - Complete Black Saint & Soul Note (2010) [FLAC]\disc 3of3\05 - Lightish.wav
Pre-gap length 0:00:00.54
Peak level 74.2 %
Extraction speed 4.2 X
Track quality 100.0 %
Test CRC 0752CE27
Copy CRC 0752CE27
Accurately ripped (confidence 1) [D31B599A]
Copy OK
Track 6
Filename J:\New Rips\Lester Bowie - Complete Black Saint & Soul Note (2010) [FLAC]\disc 3of3\06 - Sun Precondition Six.wav
Peak level 95.2 %
Extraction speed 2.0 X
Track quality 100.0 %
Test CRC 02C011B7
Copy CRC 02C011B7
Accurately ripped (confidence 1) [D4CA4413]
Copy OK
Track 7
Filename J:\New Rips\Lester Bowie - Complete Black Saint & Soul Note (2010) [FLAC]\disc 3of3\07 - Peacemaker.wav
Peak level 95.2 %
Extraction speed 6.1 X
Track quality 100.0 %
Test CRC 47CB75D9
Copy CRC 47CB75D9
Accurately ripped (confidence 1) [B6581E19]
Copy OK
Track 8
Filename J:\New Rips\Lester Bowie - Complete Black Saint & Soul Note (2010) [FLAC]\disc 3of3\08 - Wait A Minute.wav
Peak level 75.4 %
Extraction speed 5.7 X
Track quality 100.0 %
Test CRC EB61923B
Copy CRC EB61923B
Accurately ripped (confidence 1) [DBF55CAC]
Copy OK
Track 9
Filename J:\New Rips\Lester Bowie - Complete Black Saint & Soul Note (2010) [FLAC]\disc 3of3\09 - Agadir.wav
Pre-gap length 0:00:03.37
Peak level 95.2 %
Extraction speed 5.2 X
Track quality 100.0 %
Test CRC 2B164653
Copy CRC 2B164653
Accurately ripped (confidence 1) [5FB388A7]
Copy OK
Track 10
Filename J:\New Rips\Lester Bowie - Complete Black Saint & Soul Note (2010) [FLAC]\disc 3of3\10 - Heaven Dance.wav
Pre-gap length 0:00:00.70
Peak level 95.3 %
Extraction speed 7.5 X
Track quality 100.0 %
Test CRC 5A019EF9
Copy CRC 5A019EF9
Accurately ripped (confidence 1) [E39D6441]
Copy OK
Track 11
Filename J:\New Rips\Lester Bowie - Complete Black Saint & Soul Note (2010) [FLAC]\disc 3of3\11 - Now A Moment.wav
Pre-gap length 0:00:00.36
Peak level 95.2 %
Extraction speed 4.7 X
Track quality 100.0 %
Test CRC CF82656F
Copy CRC CF82656F
Accurately ripped (confidence 1) [CC4C5E5D]
Copy OK
Track 12
Filename J:\New Rips\Lester Bowie - Complete Black Saint & Soul Note (2010) [FLAC]\disc 3of3\12 - Lucia.wav
Pre-gap length 0:00:03.14
Peak level 90.7 %
Extraction speed 8.1 X
Track quality 100.0 %
Test CRC B3DF84D8
Copy CRC B3DF84D8
Accurately ripped (confidence 1) [D2E62F29]
Copy OK
Track 13
Filename J:\New Rips\Lester Bowie - Complete Black Saint & Soul Note (2010) [FLAC]\disc 3of3\13 - Blueberry Hill.wav
Peak level 95.2 %
Extraction speed 8.2 X
Track quality 100.0 %
Test CRC FF356704
Copy CRC FF356704
Accurately ripped (confidence 1) [DA638783]
Copy OK
All tracks accurately ripped
No errors occurred
End of status report
==== Log checksum 7B7D6E00E08F15F479EF9E59A022A4A1CC92AFA56340B999DC6969C58BCB56FE ====
 
Содержание индексной карты (.CUE)
REM GENRE Jazz
REM DATE 2010
REM DISCID B50A980D
REM COMMENT "ExactAudioCopy v1.0b1"
PERFORMER "Lester Bowie"
TITLE "Complete Black Saint & Soul Note"
FILE "01 - In A Minute.wav" WAVE
TRACK 01 AUDIO
TITLE "In A Minute"
PERFORMER "Lester Bowie"
FLAGS DCP
INDEX 01 00:00:00
TRACK 02 AUDIO
TITLE "Hip Dripper"
PERFORMER "Lester Bowie"
FLAGS DCP
INDEX 00 02:45:64
FILE "02 - Hip Dripper.wav" WAVE
INDEX 01 00:00:00
FILE "03 - Sun Precondition Five.wav" WAVE
TRACK 03 AUDIO
TITLE "Sun Precondition Five"
PERFORMER "Lester Bowie"
FLAGS DCP
INDEX 01 00:00:00
TRACK 04 AUDIO
TITLE "The Search"
PERFORMER "Lester Bowie"
FLAGS DCP
INDEX 00 00:37:66
FILE "04 - The Search.wav" WAVE
INDEX 01 00:00:00
TRACK 05 AUDIO
TITLE "Lightish"
PERFORMER "Lester Bowie"
FLAGS DCP
INDEX 00 02:47:39
FILE "05 - Lightish.wav" WAVE
INDEX 01 00:00:00
FILE "06 - Sun Precondition Six.wav" WAVE
TRACK 06 AUDIO
TITLE "Sun Precondition Six"
PERFORMER "Lester Bowie"
FLAGS DCP
INDEX 01 00:00:00
FILE "07 - Peacemaker.wav" WAVE
TRACK 07 AUDIO
TITLE "Peacemaker"
PERFORMER "Lester Bowie"
FLAGS DCP
INDEX 01 00:00:00
FILE "08 - Wait A Minute.wav" WAVE
TRACK 08 AUDIO
TITLE "Wait A Minute"
PERFORMER "Lester Bowie"
FLAGS DCP
INDEX 01 00:00:00
TRACK 09 AUDIO
TITLE "Agadir"
PERFORMER "Lester Bowie"
FLAGS DCP
INDEX 00 02:31:50
FILE "09 - Agadir.wav" WAVE
INDEX 01 00:00:00
TRACK 10 AUDIO
TITLE "Heaven Dance"
PERFORMER "Lester Bowie"
FLAGS DCP
INDEX 00 01:35:39
FILE "10 - Heaven Dance.wav" WAVE
INDEX 01 00:00:00
TRACK 11 AUDIO
TITLE "Now A Moment"
PERFORMER "Lester Bowie"
FLAGS DCP
INDEX 00 09:47:04
FILE "11 - Now A Moment.wav" WAVE
INDEX 01 00:00:00
TRACK 12 AUDIO
TITLE "Lucia"
PERFORMER "Lester Bowie"
FLAGS DCP
INDEX 00 00:45:50
FILE "12 - Lucia.wav" WAVE
INDEX 01 00:00:00
FILE "13 - Blueberry Hill.wav" WAVE
TRACK 13 AUDIO
TITLE "Blueberry Hill"
PERFORMER "Lester Bowie"
FLAGS DCP
INDEX 01 00:00:00
По всем вопросам пишите личное сообщение пользователю M0p94ok.
20:22
241
Нет комментариев. Ваш будет первым!