Вы используете незарегистрированную версию компонента "Вкладки"!

Поиск

(Avant-Garde Jazz, Free Improvisation) Ken Vandermark & Mats Gustafsson - Verses - 2013, FLAC (tracks+.cue), lossless

(Avant-Garde Jazz, Free Improvisation) Ken Vandermark & Mats Gustafsson - Verses - 2013, FLAC (tracks+.cue), lossless
Треклист:
♦ Ken Vandermark & Mats Gustafsson - Verses ♦
Жанр: Avant-Garde Jazz, Free Improvisation
Год издания: 2013
Издатель (лейбл): Corbett vs. Dempsey
Аудиокодек: FLAC (*.flac)
Тип рипа: tracks+.cue
Битрейт аудио: lossless
Продолжительность: 00:40:14
Источник (релизер): begaybe
Наличие сканов в содержимом раздачи: нет
Треклист:
01. The Madness of Branches [06:35]
02. Ripolin [10:20]
03. Fortunate Rust [07:47]
04. I Never Dreamed [06:54]
05. Beside Me, Images. [04:38]
06. We Turn the Page. [03:59]
 
Лог создания рипа
X Lossless Decoder version 20130720 (144.0)
XLD extraction logfile from 2013-08-12 11:36:51 +0400
Ken Vandermark, Mats Gustafsson / Verses
Used drive : HL-DT-ST DVDRW GX30N (revision RP09)
Media type : Pressed CD
Ripper mode : XLD Secure Ripper
Disable audio cache : OK for the drive with a cache less than 1375KiB
Make use of C2 pointers : NO
Read offset correction : 6
Max retry count : 100
Gap status : Analyzed, Appended (except HTOA)
TOC of the extracted CD
Track | Start | Length | Start sector | End sector
---------------------------------------------------------
1 | 00:00:00 | 06:41:42 | 0 | 30116
2 | 06:41:42 | 10:26:04 | 30117 | 77070
3 | 17:07:46 | 07:53:04 | 77071 | 112549
4 | 25:00:50 | 07:00:02 | 112550 | 144051
5 | 32:00:52 | 04:44:29 | 144052 | 165380
6 | 36:45:06 | 03:59:69 | 165381 | 183374
AccurateRip Summary
Disc not found in AccurateRip DB.
All Tracks
Album gain : -6.62 dB
Peak : 1.000000
Statistics
Read error : 0
Jitter error (maybe fixed) : 0
Retry sector count : 0
Damaged sector count : 0
Track 01
Filename : /Users/anch/Music/FLAC/Ken Vandermark, Mats Gustafsson - 2013 - Verses [MP3 320]/01 - The Madness of Branches.mp3
/Users/anch/Music/FLAC/Ken Vandermark, Mats Gustafsson - 2013 - Verses [MP3 V0]/01 - The Madness of Branches.mp3
/Users/anch/Music/FLAC/Ken Vandermark, Mats Gustafsson - 2013 - Verses [FLAC]/01 - The Madness of Branches.flac
Pre-gap length : 00:02:00
Track gain : -7.85 dB
Peak : 1.000000
CRC32 hash (test run) : F77453CC
CRC32 hash : F77453CC
CRC32 hash (skip zero) : 4FA1C90E
AccurateRip v1 signature : DCC7C85B
AccurateRip v2 signature : 4E8400B7
->Track not present in AccurateRip database.
Statistics
Read error : 0
Jitter error (maybe fixed) : 0
Retry sector count : 0
Damaged sector count : 0
Track 02
Filename : /Users/anch/Music/FLAC/Ken Vandermark, Mats Gustafsson - 2013 - Verses [MP3 320]/02 - Ripolin.mp3
/Users/anch/Music/FLAC/Ken Vandermark, Mats Gustafsson - 2013 - Verses [MP3 V0]/02 - Ripolin.mp3
/Users/anch/Music/FLAC/Ken Vandermark, Mats Gustafsson - 2013 - Verses [FLAC]/02 - Ripolin.flac
Pre-gap length : 00:06:00
Track gain : -4.60 dB
Peak : 1.000000
CRC32 hash (test run) : BDC6DD3E
CRC32 hash : BDC6DD3E
CRC32 hash (skip zero) : D5595993
AccurateRip v1 signature : B8A80322
AccurateRip v2 signature : EA715365
->Track not present in AccurateRip database.
Statistics
Read error : 0
Jitter error (maybe fixed) : 0
Retry sector count : 0
Damaged sector count : 0
Track 03
Filename : /Users/anch/Music/FLAC/Ken Vandermark, Mats Gustafsson - 2013 - Verses [MP3 320]/03 - Fortunate Rust.mp3
/Users/anch/Music/FLAC/Ken Vandermark, Mats Gustafsson - 2013 - Verses [MP3 V0]/03 - Fortunate Rust.mp3
/Users/anch/Music/FLAC/Ken Vandermark, Mats Gustafsson - 2013 - Verses [FLAC]/03 - Fortunate Rust.flac
Pre-gap length : 00:06:00
Track gain : -6.25 dB
Peak : 1.000000
CRC32 hash (test run) : C8345E8C
CRC32 hash : C8345E8C
CRC32 hash (skip zero) : C4C83D3E
AccurateRip v1 signature : FA79F081
AccurateRip v2 signature : FEB85036
->Track not present in AccurateRip database.
Statistics
Read error : 0
Jitter error (maybe fixed) : 0
Retry sector count : 0
Damaged sector count : 0
Track 04
Filename : /Users/anch/Music/FLAC/Ken Vandermark, Mats Gustafsson - 2013 - Verses [MP3 320]/04 - I Never Dreamed.mp3
/Users/anch/Music/FLAC/Ken Vandermark, Mats Gustafsson - 2013 - Verses [MP3 V0]/04 - I Never Dreamed.mp3
/Users/anch/Music/FLAC/Ken Vandermark, Mats Gustafsson - 2013 - Verses [FLAC]/04 - I Never Dreamed.flac
Pre-gap length : 00:06:00
Track gain : -0.12 dB
Peak : 1.000000
CRC32 hash (test run) : 9D1A82CD
CRC32 hash : 9D1A82CD
CRC32 hash (skip zero) : BCB67C2C
AccurateRip v1 signature : 35C9C368
AccurateRip v2 signature : 1DCFDEAE
->Track not present in AccurateRip database.
Statistics
Read error : 0
Jitter error (maybe fixed) : 0
Retry sector count : 0
Damaged sector count : 0
Track 05
Filename : /Users/anch/Music/FLAC/Ken Vandermark, Mats Gustafsson - 2013 - Verses [MP3 320]/05 - Beside Me, Images..mp3
/Users/anch/Music/FLAC/Ken Vandermark, Mats Gustafsson - 2013 - Verses [MP3 V0]/05 - Beside Me, Images..mp3
/Users/anch/Music/FLAC/Ken Vandermark, Mats Gustafsson - 2013 - Verses [FLAC]/05 - Beside Me, Images..flac
Pre-gap length : 00:06:00
Track gain : -7.90 dB
Peak : 1.000000
CRC32 hash (test run) : DD54857D
CRC32 hash : DD54857D
CRC32 hash (skip zero) : 2C988993
AccurateRip v1 signature : C94872EB
AccurateRip v2 signature : 495146F9
->Track not present in AccurateRip database.
Statistics
Read error : 0
Jitter error (maybe fixed) : 0
Retry sector count : 0
Damaged sector count : 0
Track 06
Filename : /Users/anch/Music/FLAC/Ken Vandermark, Mats Gustafsson - 2013 - Verses [MP3 320]/06 - We Turn the Page..mp3
/Users/anch/Music/FLAC/Ken Vandermark, Mats Gustafsson - 2013 - Verses [MP3 V0]/06 - We Turn the Page..mp3
/Users/anch/Music/FLAC/Ken Vandermark, Mats Gustafsson - 2013 - Verses [FLAC]/06 - We Turn the Page..flac
Pre-gap length : 00:06:00
Track gain : -2.90 dB
Peak : 0.711029
CRC32 hash (test run) : 56BE45B5
CRC32 hash : 56BE45B5
CRC32 hash (skip zero) : 3D396079
AccurateRip v1 signature : 8A45B354
AccurateRip v2 signature : 9B46A734
->Track not present in AccurateRip database.
Statistics
Read error : 0
Jitter error (maybe fixed) : 0
Retry sector count : 0
Damaged sector count : 0
No errors occurred
End of status report
 
Содержание индексной карты (.CUE)
TITLE "Verses"
PERFORMER "Ken Vandermark, Mats Gustafsson"
REM GENRE "Free Jazz"
REM DATE "2013"
REM DISCNUMBER 1
REM TOTALDISCS 1
REM DISCID 36098D06
REM REPLAYGAIN_ALBUM_GAIN -6.62 dB
REM REPLAYGAIN_ALBUM_PEAK 1.000000
FILE "01 - The Madness of Branches.flac" WAVE
TRACK 01 AUDIO
TITLE "The Madness of Branches"
PERFORMER "Ken Vandermark, Mats Gustafsson"
REM REPLAYGAIN_TRACK_GAIN -7.85 dB
REM REPLAYGAIN_TRACK_PEAK 1.000000
INDEX 01 00:00:00
TRACK 02 AUDIO
TITLE "Ripolin"
PERFORMER "Ken Vandermark, Mats Gustafsson"
REM REPLAYGAIN_TRACK_GAIN -4.60 dB
REM REPLAYGAIN_TRACK_PEAK 1.000000
INDEX 00 06:35:42
FILE "02 - Ripolin.flac" WAVE
INDEX 01 00:00:00
TRACK 03 AUDIO
TITLE "Fortunate Rust"
PERFORMER "Ken Vandermark, Mats Gustafsson"
REM REPLAYGAIN_TRACK_GAIN -6.25 dB
REM REPLAYGAIN_TRACK_PEAK 1.000000
INDEX 00 10:20:04
FILE "03 - Fortunate Rust.flac" WAVE
INDEX 01 00:00:00
TRACK 04 AUDIO
TITLE "I Never Dreamed"
PERFORMER "Ken Vandermark, Mats Gustafsson"
REM REPLAYGAIN_TRACK_GAIN -0.12 dB
REM REPLAYGAIN_TRACK_PEAK 1.000000
INDEX 00 07:47:04
FILE "04 - I Never Dreamed.flac" WAVE
INDEX 01 00:00:00
TRACK 05 AUDIO
TITLE "Beside Me, Images."
PERFORMER "Ken Vandermark, Mats Gustafsson"
REM REPLAYGAIN_TRACK_GAIN -7.90 dB
REM REPLAYGAIN_TRACK_PEAK 1.000000
INDEX 00 06:54:02
FILE "05 - Beside Me, Images..flac" WAVE
INDEX 01 00:00:00
TRACK 06 AUDIO
TITLE "We Turn the Page."
PERFORMER "Ken Vandermark, Mats Gustafsson"
REM REPLAYGAIN_TRACK_GAIN -2.90 dB
REM REPLAYGAIN_TRACK_PEAK 0.711029
INDEX 00 04:38:29
FILE "06 - We Turn the Page..flac" WAVE
INDEX 01 00:00:00
 
Состав
Ken Vandermark - ts, cl, Bcl
Mats Gustafsson - as, ts, bars
Any questions -> support@pro-jazz.com. По всем вопросам пишите -> support@pro-jazz.com
20:21
151
Нет комментариев. Ваш будет первым!