Вы используете незарегистрированную версию компонента "Вкладки"!

Поиск

(Free Funk, Avant-Garde Jazz) Music Revelation Ensemble - Music Revelation Ensemble (feat. Murray, Tacuma, Shannon Jackson) - 1988, FLAC (image+.cue), lossless

(Free Funk, Avant-Garde Jazz) Music Revelation Ensemble - Music Revelation Ensemble (feat. Murray, Tacuma, Shannon Jackson) - 1988, FLAC (image+.cue), lossless
Треклист:
Music Revelation Ensemble
Жанр: Free Funk, Avant-Garde Jazz
Страна-производитель диска: Japan
Год издания: 1988
Издатель (лейбл): DIW
Номер по каталогу: DIW-825
Страна: USA
Аудиокодек: FLAC (*.flac)
Тип рипа: image+.cue
Битрейт аудио: lossless
Продолжительность: 00:58:40
Источник (релизер): desertrat aka wustenratte
Наличие сканов в содержимом раздачи: да (front+back)
Треклист:
1. Bodytalk
2. Playtime
3. Nisa
4. Street Bride
5. Blues for David
6. Burn!
 
Лог создания рипа
Exact Audio Copy V0.99 prebeta 4 from 23. January 2008
EAC extraction logfile from 14. February 2010, 8:44
Music Revelation Ensemble / Music Revelation Ensemble
Used drive : Optiarc DVD RW AD-7560A Adapter: 0 ID: 0
Read mode : Secure
Utilize accurate stream : Yes
Defeat audio cache : Yes
Make use of C2 pointers : No
Read offset correction : 6
Overread into Lead-In and Lead-Out : No
Fill up missing offset samples with silence : Yes
Delete leading and trailing silent blocks : No
Null samples used in CRC calculations : Yes
Used interface : Native Win32 interface for Win NT & 2000
Used output format : Internal WAV Routines
Sample format : 44.100 Hz; 16 Bit; Stereo
TOC of the extracted CD
Track | Start | Length | Start sector | End sector
---------------------------------------------------------
1 | 0:00.00 | 12:43.53 | 0 | 57277
2 | 12:43.53 | 11:33.35 | 57278 | 109287
3 | 24:17.13 | 11:53.60 | 109288 | 162822
4 | 36:10.73 | 8:45.00 | 162823 | 202197
5 | 44:55.73 | 5:01.17 | 202198 | 224789
6 | 49:57.15 | 8:41.48 | 224790 | 263912
Range status and errors
Selected range
Filename C:\DESERTRAT EAC RIPs\11 MRE - MUSIC REVELATION ENSEMBLE (1988)\Music Revelation Ensemble - Music Revelation Ensemble.wav
Peak level 100.0 %
Range quality 100.0 %
Test CRC 163038A1
Copy CRC 163038A1
Copy OK
No errors occurred
AccurateRip summary
Track 1 not present in database
Track 2 not present in database
Track 3 not present in database
Track 4 not present in database
Track 5 not present in database
Track 6 not present in database
None of the tracks are present in the AccurateRip database
End of status report
 
Содержание индексной карты (.CUE)
REM DISCID 680DBE06
REM COMMENT ExactAudioCopy v0.99pb4
PERFORMER "Music Revelation Ensemble"
TITLE "Music Revelation Ensemble"
FILE "Music Revelation Ensemble - Music Revelation Ensemble.flac" WAVE
TRACK 01 AUDIO
TITLE "Bodytalk"
INDEX 01 00:00:00
TRACK 02 AUDIO
TITLE "Playtime"
INDEX 01 12:43:53
TRACK 03 AUDIO
TITLE "Nisa"
INDEX 01 24:17:13
TRACK 04 AUDIO
TITLE "Street Bride"
INDEX 01 36:10:73
TRACK 05 AUDIO
TITLE "Blues For David"
INDEX 01 44:55:73
TRACK 06 AUDIO
TITLE "Burn!"
INDEX 01 49:57:15
 
Состав
James Blood Ulmer - Guitar
David Murray - Saxophone
Jamaaladeen Tacuma - Bass
Ronald Shannon Jackson - Drums
По всем вопросам пишите личное сообщение пользователю M0p94ok.
20:26
201
Нет комментариев. Ваш будет первым!