Вы используете незарегистрированную версию компонента "Вкладки"!

Поиск

(Free Jazz, Percussion Music, FMR) [CD] Fredy Studer, Hamid Drake, Michael Zerang - Drummin' Chicago - 2005, FLAC (tracks+.cue), lossless

(Free Jazz, Percussion Music, FMR) [CD] Fredy Studer, Hamid Drake, Michael Zerang - Drummin' Chicago - 2005, FLAC (tracks+.cue), lossless
Треклист:
Fredy Studer, Hamid Drake, Michael Zerang / Drummin' Chicago
Жанр: Free Jazz, Percussion Music, FMR
Носитель: CD
Страна-производитель диска: UK
Год издания: 2005
Издатель (лейбл): FMR Records
Номер по каталогу: FMRCD160-0505
Страна: US, Switzerland
Аудиокодек: FLAC (*.flac)
Тип рипа: tracks+.cue
Битрейт аудио: lossless
Продолжительность: 54:50
Источник (релизер): свой фирменный диск
Наличие сканов в содержимом раздачи:
Треклист:
1. North Damen Trance 12:04
2. Drummin' Chicago 2:18
3. Empty Bottle Flow 8:37
4. Prima Materia 4:09
5. Six Hands 10:12
6. Blue Elbow 5:22
7. Candlestick Whistle 1:40
8. Three Voices 3:53
9. Movements On Skin 6:30
 
Лог создания рипа
Exact Audio Copy V1.0 beta 3 from 29. August 2011
EAC extraction logfile from 19. May 2014, 21:30
Fredy Studer, Hamid Drake, Michael Zerang / Drummin' Chicago
Used drive : PIONEER DVD-RW DVR-115D Adapter: 0 ID: 0
Read mode : Secure
Utilize accurate stream : Yes
Defeat audio cache : Yes
Make use of C2 pointers : No
Read offset correction : 48
Overread into Lead-In and Lead-Out : No
Fill up missing offset samples with silence : Yes
Delete leading and trailing silent blocks : No
Null samples used in CRC calculations : Yes
Used interface : Installed external ASPI interface
Gap handling : Appended to previous track
Used output format : User Defined Encoder
Selected bitrate : 896 kBit/s
Quality : High
Add ID3 tag : No
Command line compressor : C:\Program Files\Exact Audio Copy\FLAC\FLAC.EXE
Additional command line options : -6 -V -T "ARTIST=%artist%" -T "TITLE=%title%" -T "ALBUM=%albumtitle%" -T "DATE=%year%" -T "TRACKNUMBER=%tracknr%" -T "GENRE=%genre%" -T "COMMENT=%comment%" -T "BAND=%albuminterpret%" -T "COMPOSER=%composer%" %haslyrics%--tag-from-file=LYRICS="%lyricsfile%"%haslyrics% -T "DISCNUMBER=%cdnumber%" -T "TOTALDISCS=%totalcds%" -T "TOTALTRACKS=%numtracks%" %hascover%--picture="%coverfile%"%hascover% %source% -o %dest%
TOC of the extracted CD
Track | Start | Length | Start sector | End sector
---------------------------------------------------------
1 | 0:00.00 | 12:04.65 | 0 | 54364
2 | 12:04.65 | 2:17.74 | 54365 | 64713
3 | 14:22.64 | 8:37.62 | 64714 | 103550
4 | 23:00.51 | 4:09.51 | 103551 | 122276
5 | 27:10.27 | 10:12.51 | 122277 | 168227
6 | 37:23.03 | 5:22.47 | 168228 | 192424
7 | 42:45.50 | 1:40.42 | 192425 | 199966
8 | 44:26.17 | 3:53.67 | 199967 | 217508
9 | 48:20.09 | 6:30.13 | 217509 | 246771
Track 1
Filename D:\zzz\01 - North Damen Trance.wav
Pre-gap length 0:00:02.00
Peak level 100.0 %
Extraction speed 4.8 X
Track quality 99.9 %
Test CRC BAED92C3
Copy CRC BAED92C3
Track not present in AccurateRip database
Copy OK
Track 2
Filename D:\zzz\02 - Drummin' Chicago.wav
Peak level 100.0 %
Extraction speed 5.1 X
Track quality 100.0 %
Test CRC B85CB0D5
Copy CRC B85CB0D5
Track not present in AccurateRip database
Copy OK
Track 3
Filename D:\zzz\03 - Empty Bottle Flow.wav
Peak level 100.0 %
Extraction speed 6.6 X
Track quality 100.0 %
Test CRC 41073955
Copy CRC 41073955
Track not present in AccurateRip database
Copy OK
Track 4
Filename D:\zzz\04 - Prima Materia.wav
Peak level 99.9 %
Extraction speed 5.9 X
Track quality 99.9 %
Test CRC E5B6D0B7
Copy CRC E5B6D0B7
Track not present in AccurateRip database
Copy OK
Track 5
Filename D:\zzz\05 - Six Hands.wav
Peak level 100.0 %
Extraction speed 7.6 X
Track quality 100.0 %
Test CRC 9C5C9BDB
Copy CRC 9C5C9BDB
Track not present in AccurateRip database
Copy OK
Track 6
Filename D:\zzz\06 - Blue Elbow.wav
Peak level 100.0 %
Extraction speed 7.8 X
Track quality 100.0 %
Test CRC BC12AFBB
Copy CRC BC12AFBB
Track not present in AccurateRip database
Copy OK
Track 7
Filename D:\zzz\07 - Candlestick Whistle.wav
Peak level 98.8 %
Extraction speed 3.1 X
Track quality 99.6 %
Test CRC DB3E3A65
Copy CRC DB3E3A65
Track not present in AccurateRip database
Copy OK
Track 8
Filename D:\zzz\08 - Three Voices.wav
Peak level 100.0 %
Extraction speed 7.8 X
Track quality 100.0 %
Test CRC E7FD0663
Copy CRC E7FD0663
Track not present in AccurateRip database
Copy OK
Track 9
Filename D:\zzz\09 - Movements On Skin.wav
Peak level 99.9 %
Extraction speed 4.3 X
Track quality 99.7 %
Test CRC 88C0EDD5
Copy CRC 88C0EDD5
Track not present in AccurateRip database
Copy OK
None of the tracks are present in the AccurateRip database
No errors occurred
End of status report
==== Log checksum 2F636964E381C14E4F7EE1D0BDF21DCD6FBEBD7F04EA255FCF3C6FD5D45623AE ====
 
Содержание индексной карты (.CUE)
REM GENRE "Percussion Music"
REM DATE 2005
REM DISCID 810CDA09
REM COMMENT "ExactAudioCopy v1.0b3"
PERFORMER "Fredy Studer, Hamid Drake, Michael Zerang"
TITLE "Drummin' Chicago"
FILE "01 - North Damen Trance.wav" WAVE
TRACK 01 AUDIO
TITLE "North Damen Trance"
PERFORMER "Fredy Studer, Hamid Drake, Michael Zerang"
FLAGS DCP
INDEX 01 00:00:00
FILE "02 - Drummin' Chicago.wav" WAVE
TRACK 02 AUDIO
TITLE "Drummin' Chicago"
PERFORMER "Fredy Studer, Hamid Drake, Michael Zerang"
FLAGS DCP
INDEX 01 00:00:00
FILE "03 - Empty Bottle Flow.wav" WAVE
TRACK 03 AUDIO
TITLE "Empty Bottle Flow"
PERFORMER "Fredy Studer, Hamid Drake, Michael Zerang"
FLAGS DCP
INDEX 01 00:00:00
FILE "04 - Prima Materia.wav" WAVE
TRACK 04 AUDIO
TITLE "Prima Materia"
PERFORMER "Fredy Studer, Hamid Drake, Michael Zerang"
FLAGS DCP
INDEX 01 00:00:00
FILE "05 - Six Hands.wav" WAVE
TRACK 05 AUDIO
TITLE "Six Hands"
PERFORMER "Fredy Studer, Hamid Drake, Michael Zerang"
FLAGS DCP
INDEX 01 00:00:00
FILE "06 - Blue Elbow.wav" WAVE
TRACK 06 AUDIO
TITLE "Blue Elbow"
PERFORMER "Fredy Studer, Hamid Drake, Michael Zerang"
FLAGS DCP
INDEX 01 00:00:00
FILE "07 - Candlestick Whistle.wav" WAVE
TRACK 07 AUDIO
TITLE "Candlestick Whistle"
PERFORMER "Fredy Studer, Hamid Drake, Michael Zerang"
FLAGS DCP
INDEX 01 00:00:00
FILE "08 - Three Voices.wav" WAVE
TRACK 08 AUDIO
TITLE "Three Voices"
PERFORMER "Fredy Studer, Hamid Drake, Michael Zerang"
FLAGS DCP
INDEX 01 00:00:00
FILE "09 - Movements On Skin.wav" WAVE
TRACK 09 AUDIO
TITLE "Movements On Skin"
PERFORMER "Fredy Studer, Hamid Drake, Michael Zerang"
FLAGS DCP
INDEX 01 00:00:00
 
Лог проверки качества
d:\>d:\aucdtect -d/-m0 d:\zzz\*.wav
auCDtect: CD records authenticity detector, version 0.8.2
Copyright (c) 2004 Oleg Berngardt. All rights reserved.
Copyright (c) 2004 Alexander Djourik. All rights reserved.
------------------------------------------------------------
Processing file: [01. North Damen Trance.wav]
------------------------------------------------------------
This track looks like CDDA with probability 100%
------------------------------------------------------------
Processing file: [02. Drummin' Chicago.wav]
------------------------------------------------------------
This track looks like CDDA with probability 100%
------------------------------------------------------------
Processing file: [03. Empty Bottle Flow.wav]
------------------------------------------------------------
This track looks like CDDA with probability 100%
------------------------------------------------------------
Processing file: [04. Prima Materia.wav]
------------------------------------------------------------
This track looks like CDDA with probability 100%
------------------------------------------------------------
Processing file: [05. Six Hands.wav]
------------------------------------------------------------
This track looks like CDDA with probability 100%
------------------------------------------------------------
Processing file: [06. Blue Elbow.wav]
------------------------------------------------------------
This track looks like CDDA with probability 100%
------------------------------------------------------------
Processing file: [07. Candlestick Whistle.wav]
------------------------------------------------------------
This track looks like CDDA with probability 99%
------------------------------------------------------------
Processing file: [08. Three Voices.wav]
------------------------------------------------------------
This track looks like CDDA with probability 100%
------------------------------------------------------------
Processing file: [09. Movements On Skin.wav]
------------------------------------------------------------
This track looks like CDDA with probability 100%
------------------------------------------------------------
Final Conclusion:
------------------------------------------------------------
These tracks looks like CDDA with probability 100%
Доп. информация:
 
Album Info
Concept by Fredy Studer
All music by Studer/Drake/Zerang
Produced by Fredy Studer
Executive production by Trevor Taylor
Recorded by Peter Wenger, assisted by Zeljko Mc Mullen at "Experimental Sound Studio", Chicago, USA, on January 7, 2003
Mixed by Andy Neresheimer and Fredy Studer at "Andy's Flat", Zurich, Switzerland, on May 7/8, 2003
Mastered by Andy Neresheimer and Fredy Studer at "Andy's Flat", Zurich, Switzerland, on December 2, 2003
Artwork by Josef Jutz
Coverphoto by Marianne Halter
Photos by Michael Bettine, Marc PoKempner
Liner notes by John Corbett
 
Состав
Fredy Studer: big gong (1), drum-set (2,3,4,6,7,8), metal (3,6,8), multiple percussion (4,6,8), plastic tubes on cymbal (5), brushes on snare drum (9)
Hamid Drake: drum-set (1,2,4,6,7,8), tabla (3), multiple percussion (4,6,8), frame drum (5), metal (6,8), brushes on snare drum (9)
Michael Zerang: scratching on snare drum (1), bells (1), drum-set (2,4,6,8), zither (3), multiple percussion (4,6,8), darabuka (5), tambourine (5), metal (6,8), whistles (7), brushes on snare drum (9)
По всем вопросам пишите личное сообщение пользователю M0p94ok.
03:23
131
Нет комментариев. Ваш будет первым!