Вы используете незарегистрированную версию компонента "Вкладки"!

Поиск

(Free Jazz, Avant-Garde Jazz, Nine Winds) [CD] Bert Turetzky & Mike Wofford (feat. George Lewis) - Transition & Transformation - 2001, FLAC (tracks+.cue), lossless

(Free Jazz, Avant-Garde Jazz, Nine Winds) [CD] Bert Turetzky & Mike Wofford (feat. George Lewis) - Transition & Transformation - 2001, FLAC (tracks+.cue), lossless
Треклист:
Bert Turetzky & Mike Wofford / Transition & Transformation
Жанр: Free Jazz, Avant-Garde Jazz, Nine Winds
Носитель: CD
Страна-производитель диска: US
Год издания: 2001
Издатель (лейбл): 9 Winds Records
Номер по каталогу: NWCD0242
Страна: US
Аудиокодек: FLAC (*.flac)
Тип рипа: tracks+.cue
Битрейт аудио: lossless
Продолжительность: 53:44
Источник (релизер): свой фирменный диск
Наличие сканов в содержимом раздачи:
Треклист:
1. A Major Decision 4:53
2. Tamalpais 7:28
3. A Heated Discussion 4:40
4. Eclipse 9:11
5. Mysterioso 7:53
6. Short Subject-I 0:39
7. Short Subject-II 1:50
8. Short Subject-III 1:25
9. Ugly Beauty 6:33
10. Paper Trail 1:17
11. TRT 0:32
12. Slow Movement 5:03
13. Vocalese 2:03
 
Лог создания рипа
Exact Audio Copy V1.0 beta 3 from 29. August 2011
EAC extraction logfile from 10. June 2014, 19:03
Bert Turetzky & Mike Wofford / Transition & Transformation
Used drive : PIONEER DVD-RW DVR-115D Adapter: 0 ID: 0
Read mode : Secure
Utilize accurate stream : Yes
Defeat audio cache : Yes
Make use of C2 pointers : No
Read offset correction : 48
Overread into Lead-In and Lead-Out : No
Fill up missing offset samples with silence : Yes
Delete leading and trailing silent blocks : No
Null samples used in CRC calculations : Yes
Used interface : Installed external ASPI interface
Gap handling : Appended to previous track
Used output format : User Defined Encoder
Selected bitrate : 896 kBit/s
Quality : High
Add ID3 tag : No
Command line compressor : C:\Program Files\Exact Audio Copy\FLAC\FLAC.EXE
Additional command line options : -6 -V -T "ARTIST=%artist%" -T "TITLE=%title%" -T "ALBUM=%albumtitle%" -T "DATE=%year%" -T "TRACKNUMBER=%tracknr%" -T "GENRE=%genre%" -T "COMMENT=%comment%" -T "BAND=%albuminterpret%" -T "COMPOSER=%composer%" %haslyrics%--tag-from-file=LYRICS="%lyricsfile%"%haslyrics% -T "DISCNUMBER=%cdnumber%" -T "TOTALDISCS=%totalcds%" -T "TOTALTRACKS=%numtracks%" %hascover%--picture="%coverfile%"%hascover% %source% -o %dest%
TOC of the extracted CD
Track | Start | Length | Start sector | End sector
---------------------------------------------------------
1 | 0:01.00 | 4:57.07 | 75 | 22356
2 | 4:58.07 | 7:32.00 | 22357 | 56256
3 | 12:30.07 | 4:41.74 | 56257 | 77405
4 | 17:12.06 | 9:13.48 | 77406 | 118928
5 | 26:25.54 | 7:39.18 | 118929 | 153371
6 | 34:04.72 | 0:40.13 | 153372 | 156384
7 | 34:45.10 | 1:54.00 | 156385 | 164934
8 | 36:39.10 | 1:26.48 | 164935 | 171432
9 | 38:05.58 | 6:34.48 | 171433 | 201030
10 | 44:40.31 | 1:19.01 | 201031 | 206956
11 | 45:59.32 | 0:35.12 | 206957 | 209593
12 | 46:34.44 | 5:07.29 | 209594 | 232647
13 | 51:41.73 | 2:03.12 | 232648 | 241884
Track 1
Filename D:\zzz\01 - A Major Decision.wav
Pre-gap length 0:00:03.00
Peak level 96.6 %
Extraction speed 4.5 X
Track quality 100.0 %
Test CRC 113B8113
Copy CRC 113B8113
Track not present in AccurateRip database
Copy OK
Track 2
Filename D:\zzz\02 - Tamalpais.wav
Pre-gap length 0:00:03.45
Peak level 78.4 %
Extraction speed 5.3 X
Track quality 100.0 %
Test CRC 725118B3
Copy CRC 725118B3
Track not present in AccurateRip database
Copy OK
Track 3
Filename D:\zzz\03 - A Heated Discussion.wav
Pre-gap length 0:00:03.45
Peak level 96.6 %
Extraction speed 5.7 X
Track quality 100.0 %
Test CRC 8AC0A98D
Copy CRC 8AC0A98D
Track not present in AccurateRip database
Copy OK
Track 4
Filename D:\zzz\04 - Eclipse.wav
Pre-gap length 0:00:01.45
Peak level 97.4 %
Extraction speed 6.6 X
Track quality 100.0 %
Test CRC 6D03D435
Copy CRC 6D03D435
Track not present in AccurateRip database
Copy OK
Track 5
Filename D:\zzz\05 - Mysterioso.wav
Pre-gap length 0:00:02.45
Peak level 100.0 %
Extraction speed 7.1 X
Track quality 100.0 %
Test CRC D7FFFF50
Copy CRC D7FFFF50
Track not present in AccurateRip database
Copy OK
Track 6
Filename D:\zzz\06 - Short Subject I.wav
Pre-gap length 0:00:03.45
Peak level 96.6 %
Extraction speed 2.9 X
Track quality 99.7 %
Test CRC 29B486A9
Copy CRC 29B486A9
Track not present in AccurateRip database
Copy OK
Track 7
Filename D:\zzz\07 - Short Subject II.wav
Pre-gap length 0:00:00.45
Peak level 96.6 %
Extraction speed 6.1 X
Track quality 100.0 %
Test CRC 682A22E0
Copy CRC 682A22E0
Track not present in AccurateRip database
Copy OK
Track 8
Filename D:\zzz\08 - Short Subject III.wav
Pre-gap length 0:00:03.45
Peak level 96.6 %
Extraction speed 4.5 X
Track quality 99.8 %
Test CRC A74B0E75
Copy CRC A74B0E75
Track not present in AccurateRip database
Copy OK
Track 9
Filename D:\zzz\09 - Ugly Beauty.wav
Pre-gap length 0:00:01.45
Peak level 100.0 %
Extraction speed 7.7 X
Track quality 100.0 %
Test CRC 27C7F12A
Copy CRC 27C7F12A
Track not present in AccurateRip database
Copy OK
Track 10
Filename D:\zzz\10 - Paper Trail.wav
Pre-gap length 0:00:01.45
Peak level 100.0 %
Extraction speed 4.6 X
Track quality 99.8 %
Test CRC BCE16150
Copy CRC BCE16150
Track not present in AccurateRip database
Copy OK
Track 11
Filename D:\zzz\11 - TRT.wav
Pre-gap length 0:00:01.45
Peak level 91.2 %
Extraction speed 2.8 X
Track quality 99.6 %
Test CRC 8AF38FE2
Copy CRC 8AF38FE2
Track not present in AccurateRip database
Copy OK
Track 12
Filename D:\zzz\12 - Slow Movement.wav
Pre-gap length 0:00:02.45
Peak level 94.7 %
Extraction speed 7.2 X
Track quality 99.9 %
Test CRC BC6D8027
Copy CRC BC6D8027
Track not present in AccurateRip database
Copy OK
Track 13
Filename D:\zzz\13 - Vocalese.wav
Pre-gap length 0:00:03.45
Peak level 66.0 %
Extraction speed 5.7 X
Track quality 99.9 %
Test CRC 5A37767F
Copy CRC 5A37767F
Track not present in AccurateRip database
Copy OK
None of the tracks are present in the AccurateRip database
No errors occurred
End of status report
==== Log checksum 35B1726590CD519ADE244422393D97EE2A78215800BBD1A98A9263887663C4D3 ====
 
Содержание индексной карты (.CUE)
REM GENRE "Avant-Garde Jazz"
REM DATE 2001
REM DISCID A70C980D
REM COMMENT "ExactAudioCopy v1.0b3"
PERFORMER "Bert Turetzky & Mike Wofford"
TITLE "Transition & Transformation"
FILE "01 - A Major Decision.wav" WAVE
TRACK 01 AUDIO
TITLE "A Major Decision"
PERFORMER "Bert Turetzky & Mike Wofford"
PREGAP 00:01:00
INDEX 01 00:00:00
TRACK 02 AUDIO
TITLE "Tamalpais"
PERFORMER "Bert Turetzky & Mike Wofford"
INDEX 00 04:53:37
FILE "02 - Tamalpais.wav" WAVE
INDEX 01 00:00:00
TRACK 03 AUDIO
TITLE "A Heated Discussion"
PERFORMER "Bert Turetzky & Mike Wofford"
INDEX 00 07:28:30
FILE "03 - A Heated Discussion.wav" WAVE
INDEX 01 00:00:00
TRACK 04 AUDIO
TITLE "Eclipse"
PERFORMER "Bert Turetzky & Mike Wofford"
INDEX 00 04:40:29
FILE "04 - Eclipse.wav" WAVE
INDEX 01 00:00:00
TRACK 05 AUDIO
TITLE "Mysterioso"
PERFORMER "Bert Turetzky & Mike Wofford"
INDEX 00 09:11:03
FILE "05 - Mysterioso.wav" WAVE
INDEX 01 00:00:00
TRACK 06 AUDIO
TITLE "Short Subject I"
PERFORMER "Bert Turetzky & Mike Wofford"
INDEX 00 07:35:48
FILE "06 - Short Subject I.wav" WAVE
INDEX 01 00:00:00
TRACK 07 AUDIO
TITLE "Short Subject II"
PERFORMER "Bert Turetzky & Mike Wofford"
INDEX 00 00:39:43
FILE "07 - Short Subject II.wav" WAVE
INDEX 01 00:00:00
TRACK 08 AUDIO
TITLE "Short Subject III"
PERFORMER "Bert Turetzky & Mike Wofford"
INDEX 00 01:50:30
FILE "08 - Short Subject III.wav" WAVE
INDEX 01 00:00:00
TRACK 09 AUDIO
TITLE "Ugly Beauty"
PERFORMER "Bert Turetzky & Mike Wofford"
INDEX 00 01:25:03
FILE "09 - Ugly Beauty.wav" WAVE
INDEX 01 00:00:00
TRACK 10 AUDIO
TITLE "Paper Trail"
PERFORMER "Bert Turetzky & Mike Wofford"
INDEX 00 06:33:03
FILE "10 - Paper Trail.wav" WAVE
INDEX 01 00:00:00
TRACK 11 AUDIO
TITLE "TRT"
PERFORMER "Bert Turetzky & Mike Wofford"
INDEX 00 01:17:31
FILE "11 - TRT.wav" WAVE
INDEX 01 00:00:00
TRACK 12 AUDIO
TITLE "Slow Movement"
PERFORMER "Bert Turetzky & Mike Wofford"
INDEX 00 00:32:42
FILE "12 - Slow Movement.wav" WAVE
INDEX 01 00:00:00
TRACK 13 AUDIO
TITLE "Vocalese"
PERFORMER "Bert Turetzky & Mike Wofford"
INDEX 00 05:03:59
FILE "13 - Vocalese.wav" WAVE
INDEX 01 00:00:00
 
Лог проверки качества
d:\>d:\aucdtect -d/-m0 d:\zzz\*.wav
auCDtect: CD records authenticity detector, version 0.8.2
Copyright (c) 2004 Oleg Berngardt. All rights reserved.
Copyright (c) 2004 Alexander Djourik. All rights reserved.
------------------------------------------------------------
Processing file: [01. A Major Decision.wav]
------------------------------------------------------------
This track looks like CDDA with probability 100%
------------------------------------------------------------
Processing file: [02. Tamalpais.wav]
------------------------------------------------------------
This track looks like CDDA with probability 99%
------------------------------------------------------------
Processing file: [03. A Heated Discussion.wav]
------------------------------------------------------------
This track looks like CDDA with probability 100%
------------------------------------------------------------
Processing file: [04. Eclipse.wav]
------------------------------------------------------------
This track looks like CDDA with probability 100%
------------------------------------------------------------
Processing file: [05. Mysterioso.wav]
------------------------------------------------------------
This track looks like CDDA with probability 100%
------------------------------------------------------------
Processing file: [06. Short Subject I.wav]
------------------------------------------------------------
This track looks like CDDA with probability 100%
------------------------------------------------------------
Processing file: [07. Short Subject II.wav]
------------------------------------------------------------
This track looks like CDDA with probability 100%
------------------------------------------------------------
Processing file: [08. Short Subject III.wav]
------------------------------------------------------------
This track looks like CDDA with probability 100%
------------------------------------------------------------
Processing file: [09. Ugly Beauty.wav]
------------------------------------------------------------
This track looks like CDDA with probability 100%
------------------------------------------------------------
Processing file: [10. Paper Trail.wav]
------------------------------------------------------------
This track looks like CDDA with probability 100%
------------------------------------------------------------
Processing file: [11. TRT.wav]
------------------------------------------------------------
This track looks like CDDA with probability 100%
------------------------------------------------------------
Processing file: [12. Slow Movement.wav]
------------------------------------------------------------
This track looks like CDDA with probability 100%
------------------------------------------------------------
Processing file: [13. Vocalese.wav]
------------------------------------------------------------
This track looks like CDDA with probability 100%
------------------------------------------------------------
Final Conclusion:
------------------------------------------------------------
These tracks looks like CDDA with probability 100%
Доп. информация:
 
Album Info & AAJ Review
(Wofford/Turetzky) - 1,6,8
(Oscar Pettiford) - 2
(Turetzky/Wofford) - 3,7,10,13
(Charles Mingus) - 4
(Thelonious Monk) - 5,9
(Turetzky) - 11
(Lewis/Turetzky/Wofford) - 12
Produced by Bert Turetzky & Mike Wofford
Recorded Fall 2000, @ Spraugeland Studios, Leucadia CA
Recording/editing/mixing eng. Peter Sprauge
Mastered by Wayne Peet
Cover art by Janos Negesy - Opus 79 (1990)
Layout & design: Jeff Atherton, Vinny Golia, & Bonnie Harkins
Liner notes: George E. Lewis, San Diego, Calif., December 6, 2000
Within seconds of hearing the opening strains of this album, it's obvious that Bert Turetzky and Mike Wofford are serious cats. At once visceral, studied, and passionate, the music leaps out of the speakers like a force of nature. Even when they cover tunes by Monk, Mingus, or Oscar Pettiford, the results are startlingly original. They avoid a common pitfall of virtuosity—although they are definitely expert players, they aren't hung up on sheer technique. Like all great players, they understand that the music comes first, and that great technique serves only as a vehicle to grasp at the mane of the muse.
Pianist Mike Wofford is known for his work with Sarah Vaughan, Benny Carter, and Ella Fitzgerald. His resume is lengthy and rich with famous names from the jazz mainstream, and his piano work on this album is enriched with vast references and experience. Bassist Bert Turetzky has many recordings, and has performed works by John Cage, Pauline Oliveros, Donald Erb, Iannis Xenakis, and Leo Smith. He is the author of the master bassist's bible The Contemporary Contrabass, and is a professor of music at the University of California in San Diego. He is one of the finest contrabass players I have ever heard! His understanding and utilization of extended techniques is formidable, but always used to advance the music, and never employed to simply call attention to the technique itself.
This music is grounded in the AACM tradition in many ways. Listeners familiar with the open-ended song forms and improvisational ideas of composers Muhal Richard Abrams, Wadada Leo Smith, Roscoe Mitchell, or The Art Ensemble of Chicago should find plenty of reference points in the music of this recording. Like Abrams, this music marries the dualism of light and dark, density and space, pleasure and pathos. This idea is elegantly detailed in Pettiford's "Tamalpais," one of the most sensitive interpretations of this piece I've ever heard. Like Leo Smith, they have a deep respect for tonal quality and timbral shading that bring ineffable emotional power to a melodic phrase. They share a commonality with Roscoe Mitchell in their use of stark contrasts between simply stated lines and very abstract harmonic underpinnings; and they resemble the AEC as a whole just because they have so much fun juggling genres and styles.
Fans of Monk or Mingus should check the versions of "Mysterioso," "Ugly Beauty," and "Eclipse" presented on this disk! The arrangements of these pieces are original, humorous, and revelatory.
This record is not for everyone (if you require a walking bass line, forget it!), but if you are a serious student of the upright bass, modern piano styles, or clever arrangements, don't hesitate to explore this music.
 
Состав
Bertram Turetzky: contrabass
Mike Wofford: piano
George Lewis: trombone
Glen Campbell: 1st cello
Mary Lindblom: 2nd cello
Lorie Kirkell: 3rd cello
Kristin Korb: vocals (4)
По всем вопросам пишите личное сообщение пользователю M0p94ok.
03:23
130
Нет комментариев. Ваш будет первым!