Поиск

(Free Improvisation, Percussion Music, FMR) [CD] Tony Bianco - Avyayah (Drone Drums) - 2005, FLAC (tracks+.cue), lossless

(Free Improvisation, Percussion Music, FMR) [CD] Tony Bianco - Avyayah (Drone Drums) - 2005, FLAC (tracks+.cue), lossless
Треклист:
Tony Bianco / Avyayah (Drone Drums)
Жанр: Free Improvisation, Percussion Music, FMR
Носитель: CD
Страна-производитель диска: UK
Год издания: 2005
Издатель (лейбл): FMR Records
Номер по каталогу: FMRCD176-i0505
Страна: UK
Аудиокодек: FLAC (*.flac)
Тип рипа: tracks+.cue
Битрейт аудио: lossless
Продолжительность: 58:09
Источник (релизер): свой фирменный диск
Наличие сканов в содержимом раздачи:
Треклист:
1. Fire Of Sacrifice 7:18
2. Conch And Chariot 12:32
3. Justice 8:22
4. Wind 10:44
5. Peace And Victory 9:13
6. Balance 4:02
7. The Ancients 5:44
 
Лог создания рипа
Exact Audio Copy V1.0 beta 3 from 29. August 2011
EAC extraction logfile from 21. May 2014, 20:21
Tony Bianco / Avyayah (Drone Drums)
Used drive : PIONEER DVD-RW DVR-115D Adapter: 0 ID: 0
Read mode : Secure
Utilize accurate stream : Yes
Defeat audio cache : Yes
Make use of C2 pointers : No
Read offset correction : 48
Overread into Lead-In and Lead-Out : No
Fill up missing offset samples with silence : Yes
Delete leading and trailing silent blocks : No
Null samples used in CRC calculations : Yes
Used interface : Installed external ASPI interface
Gap handling : Appended to previous track
Used output format : User Defined Encoder
Selected bitrate : 896 kBit/s
Quality : High
Add ID3 tag : No
Command line compressor : C:\Program Files\Exact Audio Copy\FLAC\FLAC.EXE
Additional command line options : -6 -V -T "ARTIST=%artist%" -T "TITLE=%title%" -T "ALBUM=%albumtitle%" -T "DATE=%year%" -T "TRACKNUMBER=%tracknr%" -T "GENRE=%genre%" -T "COMMENT=%comment%" -T "BAND=%albuminterpret%" -T "COMPOSER=%composer%" %haslyrics%--tag-from-file=LYRICS="%lyricsfile%"%haslyrics% -T "DISCNUMBER=%cdnumber%" -T "TOTALDISCS=%totalcds%" -T "TOTALTRACKS=%numtracks%" %hascover%--picture="%coverfile%"%hascover% %source% -o %dest%
TOC of the extracted CD
Track | Start | Length | Start sector | End sector
---------------------------------------------------------
1 | 0:00.00 | 7:20.54 | 0 | 33053
2 | 7:20.54 | 12:35.07 | 33054 | 89685
3 | 19:55.61 | 8:24.08 | 89686 | 127493
4 | 28:19.69 | 10:46.07 | 127494 | 175950
5 | 39:06.01 | 9:15.07 | 175951 | 217582
6 | 48:21.08 | 4:04.70 | 217583 | 235952
7 | 52:26.03 | 5:43.29 | 235953 | 261706
Track 1
Filename D:\zzz\01 - Fire Of Sacrifice.wav
Pre-gap length 0:00:02.00
Peak level 98.4 %
Extraction speed 5.0 X
Track quality 100.0 %
Test CRC EC833A40
Copy CRC EC833A40
Track not present in AccurateRip database
Copy OK
Track 2
Filename D:\zzz\02 - Conch And Chariot.wav
Pre-gap length 0:00:02.00
Peak level 100.0 %
Extraction speed 6.2 X
Track quality 100.0 %
Test CRC E576FCCB
Copy CRC E576FCCB
Track not present in AccurateRip database
Copy OK
Track 3
Filename D:\zzz\03 - Justice.wav
Pre-gap length 0:00:02.00
Peak level 99.5 %
Extraction speed 7.0 X
Track quality 100.0 %
Test CRC B5128801
Copy CRC B5128801
Track not present in AccurateRip database
Copy OK
Track 4
Filename D:\zzz\04 - Wind.wav
Pre-gap length 0:00:02.00
Peak level 99.8 %
Extraction speed 7.8 X
Track quality 100.0 %
Test CRC 12BAF3EF
Copy CRC 12BAF3EF
Track not present in AccurateRip database
Copy OK
Track 5
Filename D:\zzz\05 - Peace And Victory.wav
Pre-gap length 0:00:02.00
Peak level 95.4 %
Extraction speed 7.9 X
Track quality 99.9 %
Test CRC 19BF9A83
Copy CRC 19BF9A83
Track not present in AccurateRip database
Copy OK
Track 6
Filename D:\zzz\06 - Balance.wav
Pre-gap length 0:00:02.00
Peak level 100.0 %
Extraction speed 8.1 X
Track quality 100.0 %
Test CRC 1B3F3DCB
Copy CRC 1B3F3DCB
Track not present in AccurateRip database
Copy OK
Track 7
Filename D:\zzz\07 - The Ancients.wav
Pre-gap length 0:00:02.00
Peak level 97.1 %
Extraction speed 8.7 X
Track quality 100.0 %
Test CRC 3CD7EE20
Copy CRC 3CD7EE20
Track not present in AccurateRip database
Copy OK
None of the tracks are present in the AccurateRip database
No errors occurred
End of status report
==== Log checksum 44A112A3CED3047F9E2F463ADD123B5FD71C62E0735C1D8DFD00D2D361E190D1 ====
 
Содержание индексной карты (.CUE)
REM GENRE "Percussion Music"
REM DATE 2005
REM DISCID 560DA107
REM COMMENT "ExactAudioCopy v1.0b3"
PERFORMER "Tony Bianco"
TITLE "Avyayah (Drone Drums)"
FILE "01 - Fire Of Sacrifice.wav" WAVE
TRACK 01 AUDIO
TITLE "Fire Of Sacrifice"
PERFORMER "Tony Bianco"
FLAGS DCP
INDEX 01 00:00:00
TRACK 02 AUDIO
TITLE "Conch And Chariot"
PERFORMER "Tony Bianco"
FLAGS DCP
INDEX 00 07:18:54
FILE "02 - Conch And Chariot.wav" WAVE
INDEX 01 00:00:00
TRACK 03 AUDIO
TITLE "Justice"
PERFORMER "Tony Bianco"
FLAGS DCP
INDEX 00 12:33:07
FILE "03 - Justice.wav" WAVE
INDEX 01 00:00:00
TRACK 04 AUDIO
TITLE "Wind"
PERFORMER "Tony Bianco"
FLAGS DCP
INDEX 00 08:22:08
FILE "04 - Wind.wav" WAVE
INDEX 01 00:00:00
TRACK 05 AUDIO
TITLE "Peace And Victory"
PERFORMER "Tony Bianco"
FLAGS DCP
INDEX 00 10:44:07
FILE "05 - Peace And Victory.wav" WAVE
INDEX 01 00:00:00
TRACK 06 AUDIO
TITLE "Balance"
PERFORMER "Tony Bianco"
FLAGS DCP
INDEX 00 09:13:07
FILE "06 - Balance.wav" WAVE
INDEX 01 00:00:00
TRACK 07 AUDIO
TITLE "The Ancients"
PERFORMER "Tony Bianco"
FLAGS DCP
INDEX 00 04:02:70
FILE "07 - The Ancients.wav" WAVE
INDEX 01 00:00:00
 
Лог проверки качества
d:\>d:\aucdtect -d/-m0 d:\zzz\*.wav
auCDtect: CD records authenticity detector, version 0.8.2
Copyright (c) 2004 Oleg Berngardt. All rights reserved.
Copyright (c) 2004 Alexander Djourik. All rights reserved.
------------------------------------------------------------
Processing file: [01. Fire Of Sacrifice.wav]
------------------------------------------------------------
This track looks like CDDA with probability 100%
------------------------------------------------------------
Processing file: [02. Conch And Chariot.wav]
------------------------------------------------------------
This track looks like CDDA with probability 100%
------------------------------------------------------------
Processing file: [03. Justice.wav]
------------------------------------------------------------
This track looks like CDDA with probability 100%
------------------------------------------------------------
Processing file: [04. Wind.wav]
------------------------------------------------------------
This track looks like CDDA with probability 100%
------------------------------------------------------------
Processing file: [05. Peace And Victory.wav]
------------------------------------------------------------
This track looks like CDDA with probability 100%
------------------------------------------------------------
Processing file: [06. Balance.wav]
------------------------------------------------------------
This track looks like CDDA with probability 100%
------------------------------------------------------------
Processing file: [07. The Ancients.wav]
------------------------------------------------------------
This track looks like CDDA with probability 100%
------------------------------------------------------------
Final Conclusion:
------------------------------------------------------------
These tracks looks like CDDA with probability 100%
Доп. информация:
 
Album Info
Liner notes: Tony Bianco
My concept for this recording is that each drum piece serves as a meditation. A flame. An invocation. Inspired from the images from the great spiritual epic, The Mahabharata I called this record 'The Avyayah Drone Drums. 'Avyaya' is a Hindu word (one of the names of Vishnu) meaning constant, no change, that is a drone. I believe that the drone is an aboriginal or primal instinct in ancient music. One is of course reminded of the didgeridoo and of the distinctive tampura drone in Indian music. Along with the images of the Mahabharata I keep a war-like trance (by keeping a drone in the drums) consistent in all pieces. I hope this recording is enjoyed and hope that in some way my over-active imagination may have invoked some valid energy from the images of this great epic. - Tony Bianco
 
Состав
Tony Bianco: drums
По всем вопросам пишите личное сообщение пользователю M0p94ok.
03:24
141
Нет комментариев. Ваш будет первым!