Вы используете незарегистрированную версию компонента "Вкладки"!

Поиск

(Avant-Garde Jazz, Free Improvisation) [CD] Brett Larner (w/ Jim O'Rourke, Anthony Braxton, Samm Bennett, John Shiurba, G.E. Stinson, Gianni Gebbia, Taku Sugimoto a.o.) - Itadakimasu (Improvised Duets 1994-2000) - 2001, FLAC (tracks+.cue), lossless

(Avant-Garde Jazz, Free Improvisation) [CD] Brett Larner (w/ Jim O'Rourke, Anthony Braxton, Samm Bennett, John Shiurba, G.E. Stinson, Gianni Gebbia, Taku Sugimoto a.o.) - Itadakimasu (Improvised Duets 1994-2000) - 2001, FLAC (tracks+.cue), lossless
Треклист:
Brett Larner / Itadakimasu (Improvised Duets 1994-2000)
Жанр: Avant-Garde Jazz, Free Improvisation
Носитель: CD
Страна-производитель диска: Canada
Год издания: 2001
Издатель (лейбл): Spool
Номер по каталогу: SPL 114 / LINE 14
Страна: Canada
Аудиокодек: FLAC (*.flac)
Тип рипа: tracks+.cue
Битрейт аудио: lossless
Продолжительность: 72:59
Источник (релизер): свой фирменный диск
Наличие сканов в содержимом раздачи:
Треклист:
1. Jim O'Rourke 8:30
2. Ted Reichman 5:17
3. Samm Bennett 7:12
4. John Shiurba 7:15
5. Anthony Braxton 9:08
6. G.E. Stinson 2:44
7. Gianni Gebbia 5:45
8. Taku Sugimoto 6:38
9. Loren Mazzacane Connors 14:07
10. Gino Robair 6:20
 
Лог создания рипа
Exact Audio Copy V1.0 beta 3 from 29. August 2011
EAC extraction logfile from 11. June 2014, 22:21
Brett Larner / Itadakimasu
Used drive : PIONEER DVD-RW DVR-115D Adapter: 0 ID: 0
Read mode : Secure
Utilize accurate stream : Yes
Defeat audio cache : Yes
Make use of C2 pointers : No
Read offset correction : 48
Overread into Lead-In and Lead-Out : No
Fill up missing offset samples with silence : Yes
Delete leading and trailing silent blocks : No
Null samples used in CRC calculations : Yes
Used interface : Installed external ASPI interface
Gap handling : Appended to previous track
Used output format : User Defined Encoder
Selected bitrate : 896 kBit/s
Quality : High
Add ID3 tag : No
Command line compressor : C:\Program Files\Exact Audio Copy\FLAC\FLAC.EXE
Additional command line options : -6 -V -T "ARTIST=%artist%" -T "TITLE=%title%" -T "ALBUM=%albumtitle%" -T "DATE=%year%" -T "TRACKNUMBER=%tracknr%" -T "GENRE=%genre%" -T "COMMENT=%comment%" -T "BAND=%albuminterpret%" -T "COMPOSER=%composer%" %haslyrics%--tag-from-file=LYRICS="%lyricsfile%"%haslyrics% -T "DISCNUMBER=%cdnumber%" -T "TOTALDISCS=%totalcds%" -T "TOTALTRACKS=%numtracks%" %hascover%--picture="%coverfile%"%hascover% %source% -o %dest%
TOC of the extracted CD
Track | Start | Length | Start sector | End sector
---------------------------------------------------------
1 | 0:00.00 | 8:30.34 | 0 | 38283
2 | 8:30.34 | 5:17.59 | 38284 | 62117
3 | 13:48.18 | 7:12.42 | 62118 | 94559
4 | 21:00.60 | 7:15.60 | 94560 | 127244
5 | 28:16.45 | 9:08.43 | 127245 | 168387
6 | 37:25.13 | 2:44.60 | 168388 | 180747
7 | 40:09.73 | 5:44.54 | 180748 | 206601
8 | 45:54.52 | 6:38.03 | 206602 | 236454
9 | 52:32.55 | 14:06.21 | 236455 | 299925
10 | 66:39.01 | 6:20.49 | 299926 | 328474
Track 1
Filename D:\zzz\01 - Jim O'Rourke.wav
Pre-gap length 0:00:02.00
Peak level 100.0 %
Extraction speed 5.4 X
Track quality 100.0 %
Test CRC 49A1FF1A
Copy CRC 49A1FF1A
Track not present in AccurateRip database
Copy OK
Track 2
Filename D:\zzz\02 - Ted Reichman.wav
Pre-gap length 0:00:03.41
Peak level 100.0 %
Extraction speed 5.9 X
Track quality 100.0 %
Test CRC 5EC046D3
Copy CRC 5EC046D3
Track not present in AccurateRip database
Copy OK
Track 3
Filename D:\zzz\03 - Samm Bennett.wav
Pre-gap length 0:00:01.05
Peak level 100.0 %
Extraction speed 6.1 X
Track quality 99.9 %
Test CRC 7BAFF28A
Copy CRC 7BAFF28A
Track not present in AccurateRip database
Copy OK
Track 4
Filename D:\zzz\04 - John Shiurba.wav
Pre-gap length 0:00:01.30
Peak level 99.6 %
Extraction speed 7.2 X
Track quality 100.0 %
Test CRC 635457DA
Copy CRC 635457DA
Track not present in AccurateRip database
Copy OK
Track 5
Filename D:\zzz\05 - Anthony Braxton.wav
Pre-gap length 0:00:00.53
Peak level 100.0 %
Extraction speed 7.8 X
Track quality 100.0 %
Test CRC 0DBC32DC
Copy CRC 0DBC32DC
Track not present in AccurateRip database
Copy OK
Track 6
Filename D:\zzz\06 - G.E. Stinson.wav
Pre-gap length 0:00:00.63
Peak level 99.6 %
Extraction speed 7.2 X
Track quality 100.0 %
Test CRC FB82D368
Copy CRC FB82D368
Track not present in AccurateRip database
Copy OK
Track 7
Filename D:\zzz\07 - Gianni Gebbia.wav
Pre-gap length 0:00:00.50
Peak level 99.5 %
Extraction speed 8.2 X
Track quality 100.0 %
Test CRC 51904FB6
Copy CRC 51904FB6
Track not present in AccurateRip database
Copy OK
Track 8
Filename D:\zzz\08 - Taku Sugimoto.wav
Pre-gap length 0:00:00.24
Peak level 100.0 %
Extraction speed 8.0 X
Track quality 99.9 %
Test CRC 00C466C3
Copy CRC 00C466C3
Track not present in AccurateRip database
Copy OK
Track 9
Filename D:\zzz\09 - Loren Mazzacane Connors.wav
Pre-gap length 0:00:00.54
Peak level 99.9 %
Extraction speed 9.3 X
Track quality 99.9 %
Test CRC AF464A01
Copy CRC AF464A01
Track not present in AccurateRip database
Copy OK
Track 10
Filename D:\zzz\10 - Gino Robair.wav
Pre-gap length 0:00:00.08
Peak level 100.0 %
Extraction speed 9.6 X
Track quality 100.0 %
Test CRC B8ECAD05
Copy CRC B8ECAD05
Track not present in AccurateRip database
Copy OK
None of the tracks are present in the AccurateRip database
No errors occurred
End of status report
==== Log checksum 6BDB50F89BB7849F7A8CB35A14D8E0A70CD025C02969C77E83FB3A9923958711 ====
 
Содержание индексной карты (.CUE)
REM GENRE "Free Improvisation"
REM DATE 2001
REM DISCID 75111B0A
REM COMMENT "ExactAudioCopy v1.0b3"
PERFORMER "Brett Larner"
TITLE "Itadakimasu"
FILE "01 - Jim O'Rourke.wav" WAVE
TRACK 01 AUDIO
TITLE "Jim O'Rourke"
PERFORMER "Brett Larner"
INDEX 01 00:00:00
TRACK 02 AUDIO
TITLE "Ted Reichman"
PERFORMER "Brett Larner"
INDEX 00 08:26:68
FILE "02 - Ted Reichman.wav" WAVE
INDEX 01 00:00:00
TRACK 03 AUDIO
TITLE "Samm Bennett"
PERFORMER "Brett Larner"
INDEX 00 05:16:54
FILE "03 - Samm Bennett.wav" WAVE
INDEX 01 00:00:00
TRACK 04 AUDIO
TITLE "John Shiurba"
PERFORMER "Brett Larner"
INDEX 00 07:11:12
FILE "04 - John Shiurba.wav" WAVE
INDEX 01 00:00:00
TRACK 05 AUDIO
TITLE "Anthony Braxton"
PERFORMER "Brett Larner"
INDEX 00 07:15:07
FILE "05 - Anthony Braxton.wav" WAVE
INDEX 01 00:00:00
TRACK 06 AUDIO
TITLE "G.E. Stinson"
PERFORMER "Brett Larner"
INDEX 00 09:07:55
FILE "06 - G.E. Stinson.wav" WAVE
INDEX 01 00:00:00
TRACK 07 AUDIO
TITLE "Gianni Gebbia"
PERFORMER "Brett Larner"
INDEX 00 02:44:10
FILE "07 - Gianni Gebbia.wav" WAVE
INDEX 01 00:00:00
TRACK 08 AUDIO
TITLE "Taku Sugimoto"
PERFORMER "Brett Larner"
INDEX 00 05:44:30
FILE "08 - Taku Sugimoto.wav" WAVE
INDEX 01 00:00:00
TRACK 09 AUDIO
TITLE "Loren Mazzacane Connors"
PERFORMER "Brett Larner"
INDEX 00 06:37:24
FILE "09 - Loren Mazzacane Connors.wav" WAVE
INDEX 01 00:00:00
TRACK 10 AUDIO
TITLE "Gino Robair"
PERFORMER "Brett Larner"
INDEX 00 14:06:13
FILE "10 - Gino Robair.wav" WAVE
INDEX 01 00:00:00
 
Лог проверки качества
d:\>d:\aucdtect -d/-m0 d:\zzz\*.wav
auCDtect: CD records authenticity detector, version 0.8.2
Copyright (c) 2004 Oleg Berngardt. All rights reserved.
Copyright (c) 2004 Alexander Djourik. All rights reserved.
------------------------------------------------------------
Processing file: [01. Jim O'Rourke.wav]
------------------------------------------------------------
This track looks like CDDA with probability 100%
------------------------------------------------------------
Processing file: [02. Ted Reichman.wav]
------------------------------------------------------------
This track looks like CDDA with probability 100%
------------------------------------------------------------
Processing file: [03. Samm Bennett.wav]
------------------------------------------------------------
This track looks like CDDA with probability 100%
------------------------------------------------------------
Processing file: [04. John Shiurba.wav]
------------------------------------------------------------
This track looks like CDDA with probability 100%
------------------------------------------------------------
Processing file: [05. Anthony Braxton.wav]
------------------------------------------------------------
This track looks like CDDA with probability 42%
------------------------------------------------------------
Processing file: [06. G.E. Stinson.wav]
------------------------------------------------------------
This track looks like CDDA with probability 100%
------------------------------------------------------------
Processing file: [07. Gianni Gebbia.wav]
------------------------------------------------------------
This track looks like CDDA with probability 100%
------------------------------------------------------------
Processing file: [08. Taku Sugimoto.wav]
------------------------------------------------------------
This track looks like CDDA with probability 100%
------------------------------------------------------------
Processing file: [09. Loren Mazzacane Connors.wav]
------------------------------------------------------------
This track looks like CDDA with probability 87%
------------------------------------------------------------
Processing file: [10. Gino Robair.wav]
------------------------------------------------------------
This track looks like CDDA with probability 100%
------------------------------------------------------------
Final Conclusion:
------------------------------------------------------------
These tracks looks like CDDA with probability 100%
Доп. информация:
 
Album Info & AMG Review
Music by Jim O'Rourke & Brett Larner (1), Ted Reichman & Brett Larner (2), Samm Bennett & Brett Larner (3), John Shiurba & Brett Larner (4), Anthony Braxton & Brett Larner (5), G.E. Stinson & Brett Larner (6), Gianni Gebbia & Brett Larner (7), Taku Sugimoto & Brett Larner (8), Loren Mazzacane Connors & Brett Larner (9), Gino Robair & Brett Larner (10)
Recorded 11-21-96 at Lounge Ax, Chicago by Dan Burke (1)
Recorded 12-9-94 at the Daltry Room, Wesleyan University by Brett Aristegui (2)
Recorded 3-3-00 at Deluxe, Tokyo by Mike Kubeck and Brett Larner (3)
Recorded 8-29-00 at Guerilla Recording, Oakland by Myles Boisen (4,10)
Recorded 12-4-96 at Crowell Concert Hall, Wesleyan University by James Fei (5)
Recorded 8-5-97 at Wall Of Masks Studio, Los Angeles by G.E. Stinson (6)
Recorded 3-6-00 at Barber Fuji, Ageo by Wataru Matsumoto (7)
Recorded 9-11-00 at Kangeikan Gallery, Tokyo by Taku Sugimoto (8)
Recorded 4-12-97 at the MPR, Wesleyan University by James Fie (9)
Mixed by Samm Bennett (3), Jeff Gauthier (6)
Mastered 10/31/00 at Setreset Studio, Tokyo by Toshimaru Nakamura
Photography by Jess Larner and David Orenstein, Tibet and Nepal, Nov. 1998
Layout by Amy Heggie, Ultra Gamut Graphics
Improbable without: the engineers, musicians and venues, Will Fry, Michael Goodstein, Ann-Marie Kishel, Jess Larner, Steve Laronga, Seth Misterka, David Orenstein, Jon Skuldt, Yoshiyuki Suzuki, Tokyo Brewing Company, Yon Visell and Weasel Walter.
Special apology to James Fei for the sound quality of the duet with Loren. The master DAT of that exceptional performance was lost and the only copy was made onto a cassette. This should not reflect upon the fine quality of James' original recording.
Albums like this one have inherent qualities that also turn into their shortcomings. Itadakimasu features Brett Larner, one of the leading koto players in avant-garde music, in ten duets with as many musicians. Therefore, his adaptability and range of expression is very well-illustrated. On the other hand, the CD lacks a bit of cohesion, the same cohesion that gave his trio album, Indistancing (with Philip Gelb and Shoko Hikage), such strength of evocation. Still, Larner's recordings are not numerous and this one should not be overlooked. These duets were performed between 1994 and 2000 in various locations. They put the kotoist head to head with a wide array of improvisers, from his teacher, Anthony Braxton, and Italian saxophonist Gianni Gebbia, to electronic artists G.E. Stinson and Samm Bennett. Jim O'Rourke performs on hurdy-gurdy. Neo-tonal guitarists Taku Sugimoto and Loren Mazzacane Connors also shared the stage with the ancestral Japanese instrument. Some encounters turned out very nice: Larner matched the plaintive tone of O'Rourke's instrument, the electricity in Connors' playing, and the familiar techniques of Braxton. But Gebbia's jazzier playing clearly destabilized him, and the Stinson track cuts almost too abruptly to be natural. The album closes on a warm improv with Gino Robair, both musicians playing on the same koto. Not as important as Indistancing or the Soemon CD, Itadakimasu remains an interesting effort. Recommended if one can handle the photographs of Tibetan meat markets.
 
Состав
Brett Larner: 13-string koto (1,2,4,6,7,8,9,10/right channel/), 21-string gu zheng (3), 17-string bass koto (5)
Jim O'Rourke: hurdy-gurdy (1)
Ted Reichman: accordion (2)
Samm Bennett: electronics (3)
John Shiurba: acoustic guitar (4)
Anthony Braxton: woodwinds (5)
G.E. Stinson: electric guitar (6)
Gianni Gebbia: alto sax, paper cup (7)
Taku Sugimoto: acoustic guitar (8)
Loren Mazzacane Connors: electric guitar (9)
Gino Robair: 13-string koto (10/left channel/)
По всем вопросам пишите личное сообщение пользователю M0p94ok.
03:25
238
Нет комментариев. Ваш будет первым!