Вы используете незарегистрированную версию компонента "Вкладки"!

Поиск

(free jazz) [cd] Howard Riley - Consequences 2005, FLAC (tracks+.cue), lossless

(free jazz) [cd] Howard Riley - Consequences 2005, FLAC (tracks+.cue), lossless
Треклист:
(free jazz) [cd] Howard Riley - Consequences 2005, FLAC (tracks+.cue), lossless


Howard Riley - Consequences 2005

Жанр: free jazz
Год выпуска: 2005
Издатель (лейбл):33 Records/33JAZZ126
Формат: FLAC (tracks+.cue)
Битрейт аудио: lossless 1`00`50
Продолжительность
Источник: what.cd, glocka

tracks
1 Consequences 6:02
2 Feelgood 5:40
3 Old Times 5:37
4 Nobility 3:12
5 Enabling 6:21
6 Chance Encounter 4:23
7 Last Night 3:53
8 Spring Fling 4:03
9 Rituals 6:04
10 Thinking Of Then 4:11
11 Trinkling 2:59
12 Further Consequences 6:41


 
.log
X Lossless Decoder version 20131102 (145.0)
XLD extraction logfile from 2014-03-10 20:28:28 +0000
Howard Riley / Consequences
Used drive : MATSHITA DVD-R UJ-8A8 (revision HA13)
Media type : Pressed CD
Ripper mode : XLD Secure Ripper
Disable audio cache : OK for the drive with a cache less than 1375KiB
Make use of C2 pointers : NO
Read offset correction : 102
Max retry count : 20
Gap status : Analyzed, Appended (except HTOA)
TOC of the extracted CD
Track | Start | Length | Start sector | End sector
---------------------------------------------------------
1 | 00:00:00 | 07:03:42 | 0 | 31766
2 | 07:03:42 | 05:43:11 | 31767 | 57502
3 | 12:46:53 | 05:40:19 | 57503 | 83021
4 | 18:26:72 | 03:16:00 | 83022 | 97721
5 | 21:42:72 | 06:23:29 | 97722 | 126475
6 | 28:06:26 | 04:26:00 | 126476 | 146425
7 | 32:32:26 | 03:56:43 | 146426 | 164168
8 | 36:28:69 | 04:09:38 | 164169 | 182881
9 | 40:38:32 | 06:12:66 | 182882 | 210847
10 | 46:51:23 | 04:14:29 | 210848 | 229926
11 | 51:05:52 | 03:04:19 | 229927 | 243745
12 | 54:09:71 | 06:39:56 | 243746 | 273726
AccurateRip Summary
Disc not found in AccurateRip DB.
All Tracks
Album gain : -1.60 dB
Peak : 0.705658
Statistics
Read error : 0
Jitter error (maybe fixed) : 0
Retry sector count : 0
Damaged sector count : 0
Track 01
Filename : /Users/edward/Documents/Howard Riley - Consequences/Howard Riley - 2005 - Consequences [FLAC]/01 Consequences.flac
Pre-gap length : 00:02:00
Track gain : -0.64 dB
Peak : 0.609863
CRC32 hash (test run) : 786EC832
CRC32 hash : 786EC832
CRC32 hash (skip zero) : AAC4AFE5
AccurateRip v1 signature : 3B2C6B5C
AccurateRip v2 signature : 94050B26
->Track not present in AccurateRip database.
Statistics
Read error : 0
Jitter error (maybe fixed) : 0
Retry sector count : 0
Damaged sector count : 0
Track 02
Filename : /Users/edward/Documents/Howard Riley - Consequences/Howard Riley - 2005 - Consequences [FLAC]/02 Feelgood.flac
Pre-gap length : 00:02:00
Track gain : -1.37 dB
Peak : 0.682159
CRC32 hash (test run) : E2F64EC9
CRC32 hash : E2F64EC9
CRC32 hash (skip zero) : 8FC35C73
AccurateRip v1 signature : 63D3F704
AccurateRip v2 signature : 9BF9555C
->Track not present in AccurateRip database.
Statistics
Read error : 0
Jitter error (maybe fixed) : 0
Retry sector count : 0
Damaged sector count : 0
Track 03
Filename : /Users/edward/Documents/Howard Riley - Consequences/Howard Riley - 2005 - Consequences [FLAC]/03 Old Times.flac
Pre-gap length : 00:02:00
Track gain : -1.29 dB
Peak : 0.640594
CRC32 hash (test run) : 05FC0495
CRC32 hash : 05FC0495
CRC32 hash (skip zero) : D0D6C86A
AccurateRip v1 signature : E464D1E0
AccurateRip v2 signature : A8E5703E
->Track not present in AccurateRip database.
Statistics
Read error : 0
Jitter error (maybe fixed) : 0
Retry sector count : 0
Damaged sector count : 0
Track 04
Filename : /Users/edward/Documents/Howard Riley - Consequences/Howard Riley - 2005 - Consequences [FLAC]/04 Nobility.flac
Pre-gap length : 00:02:00
Track gain : -2.19 dB
Peak : 0.639099
CRC32 hash (test run) : 1B5D918D
CRC32 hash : 1B5D918D
CRC32 hash (skip zero) : 2D88B3BD
AccurateRip v1 signature : FBA516B2
AccurateRip v2 signature : 8FE8A8BF
->Track not present in AccurateRip database.
Statistics
Read error : 0
Jitter error (maybe fixed) : 0
Retry sector count : 0
Damaged sector count : 0
Track 05
Filename : /Users/edward/Documents/Howard Riley - Consequences/Howard Riley - 2005 - Consequences [FLAC]/05 Enabling.flac
Pre-gap length : 00:02:00
Track gain : -1.65 dB
Peak : 0.621674
CRC32 hash (test run) : AEA7ACA0
CRC32 hash : AEA7ACA0
CRC32 hash (skip zero) : 6D0CA86C
AccurateRip v1 signature : 18257276
AccurateRip v2 signature : 0EA9DBD6
->Track not present in AccurateRip database.
Statistics
Read error : 0
Jitter error (maybe fixed) : 0
Retry sector count : 0
Damaged sector count : 0
Track 06
Filename : /Users/edward/Documents/Howard Riley - Consequences/Howard Riley - 2005 - Consequences [FLAC]/06 Chance Encounter.flac
Pre-gap length : 00:02:00
Track gain : -1.73 dB
Peak : 0.628296
CRC32 hash (test run) : 40EC3132
CRC32 hash : 40EC3132
CRC32 hash (skip zero) : A8803A2A
AccurateRip v1 signature : 3BA418AE
AccurateRip v2 signature : 26A36F57
->Track not present in AccurateRip database.
Statistics
Read error : 0
Jitter error (maybe fixed) : 0
Retry sector count : 0
Damaged sector count : 0
Track 07
Filename : /Users/edward/Documents/Howard Riley - Consequences/Howard Riley - 2005 - Consequences [FLAC]/07 Last Night.flac
Pre-gap length : 00:02:00
Track gain : -2.12 dB
Peak : 0.678436
CRC32 hash (test run) : AC9F6835
CRC32 hash : AC9F6835
CRC32 hash (skip zero) : DE1191C7
AccurateRip v1 signature : B8CD313C
AccurateRip v2 signature : E991E328
->Track not present in AccurateRip database.
Statistics
Read error : 0
Jitter error (maybe fixed) : 0
Retry sector count : 0
Damaged sector count : 0
Track 08
Filename : /Users/edward/Documents/Howard Riley - Consequences/Howard Riley - 2005 - Consequences [FLAC]/08 Spring Fling.flac
Pre-gap length : 00:02:00
Track gain : -1.45 dB
Peak : 0.618256
CRC32 hash (test run) : 2683143F
CRC32 hash : 2683143F
CRC32 hash (skip zero) : B9929CE2
AccurateRip v1 signature : A3B64F51
AccurateRip v2 signature : AF4BFF96
->Track not present in AccurateRip database.
Statistics
Read error : 0
Jitter error (maybe fixed) : 0
Retry sector count : 0
Damaged sector count : 0
Track 09
Filename : /Users/edward/Documents/Howard Riley - Consequences/Howard Riley - 2005 - Consequences [FLAC]/09 Rituals.flac
Pre-gap length : 00:02:00
Track gain : -1.53 dB
Peak : 0.678894
CRC32 hash (test run) : A88AF04B
CRC32 hash : A88AF04B
CRC32 hash (skip zero) : BFDC569D
AccurateRip v1 signature : 270A804B
AccurateRip v2 signature : D3B187D5
->Track not present in AccurateRip database.
Statistics
Read error : 0
Jitter error (maybe fixed) : 0
Retry sector count : 0
Damaged sector count : 0
Track 10
Filename : /Users/edward/Documents/Howard Riley - Consequences/Howard Riley - 2005 - Consequences [FLAC]/10 Thinking Of Then.flac
Pre-gap length : 00:02:00
Track gain : -1.95 dB
Peak : 0.653076
CRC32 hash (test run) : 90F6E228
CRC32 hash : 90F6E228
CRC32 hash (skip zero) : 8212CC90
AccurateRip v1 signature : 2FFFC47C
AccurateRip v2 signature : 4EBBA57D
->Track not present in AccurateRip database.
Statistics
Read error : 0
Jitter error (maybe fixed) : 0
Retry sector count : 0
Damaged sector count : 0
Track 11
Filename : /Users/edward/Documents/Howard Riley - Consequences/Howard Riley - 2005 - Consequences [FLAC]/11 Trinkling.flac
Pre-gap length : 00:02:00
Track gain : -2.16 dB
Peak : 0.705658
CRC32 hash (test run) : 9E10675A
CRC32 hash : 9E10675A
CRC32 hash (skip zero) : 46B3C377
AccurateRip v1 signature : A7FC80C5
AccurateRip v2 signature : F7F70A9C
->Track not present in AccurateRip database.
Statistics
Read error : 0
Jitter error (maybe fixed) : 0
Retry sector count : 0
Damaged sector count : 0
Track 12
Filename : /Users/edward/Documents/Howard Riley - Consequences/Howard Riley - 2005 - Consequences [FLAC]/12 Further Consequences.flac
Pre-gap length : 00:02:00
Track gain : -0.69 dB
Peak : 0.650940
CRC32 hash (test run) : 53D42E15
CRC32 hash : 53D42E15
CRC32 hash (skip zero) : C460E46C
AccurateRip v1 signature : EE31B641
AccurateRip v2 signature : D62A0561
->Track not present in AccurateRip database.
Statistics
Read error : 0
Jitter error (maybe fixed) : 0
Retry sector count : 0
Damaged sector count : 0
No errors occurred
End of status report
-----BEGIN XLD SIGNATURE-----
xA5z8Hm4_Of_HCqZj0SNPj6fgm5D65wthJ4rj3T3XxB4jJK1NtPzO4zZaFI99e3ypcRmqHbjVf2xvY9wX2KadEPG_GXTHxw24qrwhYO
-----END XLD SIGNATURE-----
 
.cue
TITLE "Consequences"
PERFORMER "Howard Riley"
REM GENRE "Jazz"
REM DATE "2005"
REM DISCNUMBER 1
REM TOTALDISCS 1
REM DISCID 9D0E410C
REM REPLAYGAIN_ALBUM_GAIN -1.60 dB
REM REPLAYGAIN_ALBUM_PEAK 0.705658
FILE "01 Consequences.flac" WAVE
TRACK 01 AUDIO
TITLE "Consequences"
FLAGS DCP
REM REPLAYGAIN_TRACK_GAIN -0.64 dB
REM REPLAYGAIN_TRACK_PEAK 0.609863
INDEX 01 00:00:00
TRACK 02 AUDIO
TITLE "Feelgood"
FLAGS DCP
REM REPLAYGAIN_TRACK_GAIN -1.37 dB
REM REPLAYGAIN_TRACK_PEAK 0.682159
INDEX 00 07:01:42
FILE "02 Feelgood.flac" WAVE
INDEX 01 00:00:00
TRACK 03 AUDIO
TITLE "Old Times"
FLAGS DCP
REM REPLAYGAIN_TRACK_GAIN -1.29 dB
REM REPLAYGAIN_TRACK_PEAK 0.640594
INDEX 00 05:41:11
FILE "03 Old Times.flac" WAVE
INDEX 01 00:00:00
TRACK 04 AUDIO
TITLE "Nobility"
FLAGS DCP
REM REPLAYGAIN_TRACK_GAIN -2.19 dB
REM REPLAYGAIN_TRACK_PEAK 0.639099
INDEX 00 05:38:19
FILE "04 Nobility.flac" WAVE
INDEX 01 00:00:00
TRACK 05 AUDIO
TITLE "Enabling"
FLAGS DCP
REM REPLAYGAIN_TRACK_GAIN -1.65 dB
REM REPLAYGAIN_TRACK_PEAK 0.621674
INDEX 00 03:14:00
FILE "05 Enabling.flac" WAVE
INDEX 01 00:00:00
TRACK 06 AUDIO
TITLE "Chance Encounter"
FLAGS DCP
REM REPLAYGAIN_TRACK_GAIN -1.73 dB
REM REPLAYGAIN_TRACK_PEAK 0.628296
INDEX 00 06:21:29
FILE "06 Chance Encounter.flac" WAVE
INDEX 01 00:00:00
TRACK 07 AUDIO
TITLE "Last Night"
FLAGS DCP
REM REPLAYGAIN_TRACK_GAIN -2.12 dB
REM REPLAYGAIN_TRACK_PEAK 0.678436
INDEX 00 04:24:00
FILE "07 Last Night.flac" WAVE
INDEX 01 00:00:00
TRACK 08 AUDIO
TITLE "Spring Fling"
FLAGS DCP
REM REPLAYGAIN_TRACK_GAIN -1.45 dB
REM REPLAYGAIN_TRACK_PEAK 0.618256
INDEX 00 03:54:43
FILE "08 Spring Fling.flac" WAVE
INDEX 01 00:00:00
TRACK 09 AUDIO
TITLE "Rituals"
FLAGS DCP
REM REPLAYGAIN_TRACK_GAIN -1.53 dB
REM REPLAYGAIN_TRACK_PEAK 0.678894
INDEX 00 04:07:38
FILE "09 Rituals.flac" WAVE
INDEX 01 00:00:00
TRACK 10 AUDIO
TITLE "Thinking Of Then"
FLAGS DCP
REM REPLAYGAIN_TRACK_GAIN -1.95 dB
REM REPLAYGAIN_TRACK_PEAK 0.653076
INDEX 00 06:10:66
FILE "10 Thinking Of Then.flac" WAVE
INDEX 01 00:00:00
TRACK 11 AUDIO
TITLE "Trinkling"
FLAGS DCP
REM REPLAYGAIN_TRACK_GAIN -2.16 dB
REM REPLAYGAIN_TRACK_PEAK 0.705658
INDEX 00 04:12:29
FILE "11 Trinkling.flac" WAVE
INDEX 01 00:00:00
TRACK 12 AUDIO
TITLE "Further Consequences"
FLAGS DCP
REM REPLAYGAIN_TRACK_GAIN -0.69 dB
REM REPLAYGAIN_TRACK_PEAK 0.650940
INDEX 00 03:02:19
FILE "12 Further Consequences.flac" WAVE
INDEX 01 00:00:00

http://www.discogs.com/Howard-Riley-Consequences/release/2792677
другие релизы
По всем вопросам пишите личное сообщение пользователю M0p94ok.
03:25
148
Нет комментариев. Ваш будет первым!