Вы используете незарегистрированную версию компонента "Вкладки"!

Поиск

(Avant-Garde Jazz, Contemporary, Piano) [CD] Matthew Shipp Trio - Root of Things - 2014, FLAC (tracks+.cue), lossless

(Avant-Garde Jazz, Contemporary, Piano) [CD] Matthew Shipp Trio - Root of Things - 2014, FLAC (tracks+.cue), lossless
Треклист:
MATTHEW SHIPP TRIO
ROOT OF THINGS
Жанр: Avant-Garde Jazz, Contemporary, Piano
Страна-производитель диска: USA
Год издания: 2014
Издатель (лейбл): Relative Pitch Records
Номер по каталогу: RPR1022
Аудиокодек: FLAC (*.flac)
Тип рипа: tracks+.cue
Битрейт аудио: lossless
Продолжительность: 43:34
Источник (релизер): спасибо box
Наличие сканов в содержимом раздачи: нет
Треклист:
1. Root of Things
2. Jazz It
3. Code J
4. Path
5. Pulse Code
6. Solid Circut
 
Лог создания рипа
Exact Audio Copy V1.0 beta 3 from 29. August 2011
EAC extraction logfile from 7. July 2014, 15:28
Matthew Shipp Trio / Root of Things
Used drive : PLDS DVD+-RW DH-16ABS Adapter: 1 ID: 0
Read mode : Secure
Utilize accurate stream : Yes
Defeat audio cache : Yes
Make use of C2 pointers : No
Read offset correction : 6
Overread into Lead-In and Lead-Out : No
Fill up missing offset samples with silence : Yes
Delete leading and trailing silent blocks : No
Null samples used in CRC calculations : Yes
Used interface : Native Win32 interface for Win NT & 2000
Gap handling : Appended to previous track
Used output format : User Defined Encoder
Selected bitrate : 1024 kBit/s
Quality : High
Add ID3 tag : No
Command line compressor : C:\Program Files\Exact Audio Copy\Flac\flac.exe
Additional command line options : -8 -V -T "ARTIST=%artist%" -T "TITLE=%title%" -T "ALBUM=%albumtitle%" -T "DATE=%year%" -T "TRACKNUMBER=%tracknr%" -T "GENRE=%genre%" -T "PERFORMER=%albuminterpret%" -T "COMPOSER=%composer%" %haslyrics%--tag-from-file=LYRICS="%lyricsfile%"%haslyrics% -T "ALBUMARTIST=%albumartist%" -T "DISCNUMBER=%cdnumber%" -T "TOTALDISCS=%totalcds%" -T "TOTALTRACKS=%numtracks%" -T "COMMENT=%comment%" %source% -o %dest%
TOC of the extracted CD
Track | Start | Length | Start sector | End sector
---------------------------------------------------------
1 | 0:00.00 | 6:32.58 | 0 | 29457
2 | 6:32.58 | 9:38.68 | 29458 | 72875
3 | 16:11.51 | 4:04.10 | 72876 | 91185
4 | 20:15.61 | 9:45.50 | 91186 | 135110
5 | 30:01.36 | 4:11.31 | 135111 | 153966
6 | 34:12.67 | 9:32.00 | 153967 | 196866
Track 1
Filename C:\Matthew Shipp Trio - Root of Things (2014) [FLAC]\01 - Root of Things.wav
Pre-gap length 0:00:02.00
Peak level 100.0 %
Extraction speed 3.6 X
Track quality 100.0 %
Test CRC 2FCEE573
Copy CRC 2FCEE573
Track not present in AccurateRip database
Copy OK
Track 2
Filename C:\Matthew Shipp Trio - Root of Things (2014) [FLAC]\02 - Jazz It.wav
Pre-gap length 0:00:02.00
Peak level 100.0 %
Extraction speed 4.4 X
Track quality 100.0 %
Test CRC 2B858802
Copy CRC 2B858802
Track not present in AccurateRip database
Copy OK
Track 3
Filename C:\Matthew Shipp Trio - Root of Things (2014) [FLAC]\03 - Code J.wav
Pre-gap length 0:00:02.00
Peak level 100.0 %
Extraction speed 4.6 X
Track quality 100.0 %
Test CRC 62B963E8
Copy CRC 62B963E8
Track not present in AccurateRip database
Copy OK
Track 4
Filename C:\Matthew Shipp Trio - Root of Things (2014) [FLAC]\04 - Path.wav
Pre-gap length 0:00:02.00
Peak level 100.0 %
Extraction speed 5.4 X
Track quality 100.0 %
Test CRC E3C37641
Copy CRC E3C37641
Track not present in AccurateRip database
Copy OK
Track 5
Filename C:\Matthew Shipp Trio - Root of Things (2014) [FLAC]\05 - Pulse Code.wav
Pre-gap length 0:00:02.00
Peak level 100.0 %
Extraction speed 5.4 X
Track quality 100.0 %
Test CRC 28616429
Copy CRC 28616429
Track not present in AccurateRip database
Copy OK
Track 6
Filename C:\Matthew Shipp Trio - Root of Things (2014) [FLAC]\06 - Solid Circut.wav
Pre-gap length 0:00:02.00
Peak level 100.0 %
Extraction speed 5.6 X
Track quality 99.9 %
Test CRC F48972D0
Copy CRC F48972D0
Track not present in AccurateRip database
Copy OK
None of the tracks are present in the AccurateRip database
No errors occurred
End of status report
---- CUETools DB Plugin V2.1.3
[CTDB TOCID: XJXEpxr_BP.ttraVbgmtuRwX99c-] disk not present in database, Submit result: XJXEpxr_BP.ttraVbgmtuRwX99c- has been uploaded
==== Log checksum 7BF890C9F38FD80668C6F3A7B64DA8D37A12389854B8FDBA788F87BDB1CCFA21 ====
 
Содержание индексной карты (.CUE)
REM GENRE Jazz
REM DATE 2014
REM DISCID 470A4006
REM COMMENT "ExactAudioCopy v1.0b3"
PERFORMER "Matthew Shipp Trio"
TITLE "Root of Things"
FILE "01 - Root of Things.wav" WAVE
TRACK 01 AUDIO
TITLE "Root of Things"
PERFORMER "Matthew Shipp Trio"
ISRC QMRAT1400028
FLAGS DCP
INDEX 01 00:00:00
TRACK 02 AUDIO
TITLE "Jazz It"
PERFORMER "Matthew Shipp Trio"
ISRC QMRAT1400029
FLAGS DCP
INDEX 00 06:30:58
FILE "02 - Jazz It.wav" WAVE
INDEX 01 00:00:00
TRACK 03 AUDIO
TITLE "Code J"
PERFORMER "Matthew Shipp Trio"
ISRC QMRAT1400030
FLAGS DCP
INDEX 00 09:36:68
FILE "03 - Code J.wav" WAVE
INDEX 01 00:00:00
TRACK 04 AUDIO
TITLE "Path"
PERFORMER "Matthew Shipp Trio"
ISRC QMRAT1400031
FLAGS DCP
INDEX 00 04:02:10
FILE "04 - Path.wav" WAVE
INDEX 01 00:00:00
TRACK 05 AUDIO
TITLE "Pulse Code"
PERFORMER "Matthew Shipp Trio"
ISRC QMRAT1400032
FLAGS DCP
INDEX 00 09:43:50
FILE "05 - Pulse Code.wav" WAVE
INDEX 01 00:00:00
TRACK 06 AUDIO
TITLE "Solid Circut"
PERFORMER "Matthew Shipp Trio"
ISRC QMRAT1400033
FLAGS DCP
INDEX 00 04:09:31
FILE "06 - Solid Circut.wav" WAVE
INDEX 01 00:00:00
 
Об альбоме
There are thoughtful pianists who play from the brain and passionate pianists who play from the heart. Matthew Shipp’s distinction has been that he’s always been a thoughtful pianist who plays from the heart. That’s been the case when he’s played alongside sax greats like David S. Ware, Roscoe Mitchell and Ivo Perelman, just him alone with his piano, and certainly with his long-running trio with bassist Michael Bisio and drummer Whit Dickey.
Root of Things, coming out next week on Relative Pitch Records, is Shipp returning to that trio, whose last record with strictly this lineup was Elastic Aspects, two years but some ten releases ago (the excellent The Edge (2013) documented a meeting of the three with Perelman).
Over these half-dozen pieces, I’m dividing them into the ol’ vinyl “side one” and “side two” format in my mind, because the first three songs emphasizes band congruity and the last three tends to portray the individual talents better.
“Root Of Things” is a good example of how an unconventional arrangement can make very natural sounding music. Bisio’s bass lines syncs up with Shipp’s piano lines then diverge onto its own parallel path only to reunite with Shipp again. Dickey acts not as a timekeeper but a third timbre zone, serving dashes of cymbals and tom-toms in measured portions. Together, the symmetry produces something that doesn’t seem ordered but makes sense.
The bass walk swing of “Jazz It” takes a traditional jazz foundation and piles on modern jazz ideas, sometimes colliding with each other. Simply stated themes are sandwiched by sometimes-dense excursions that Bisio and Dickey react to but they never overreact. “Code J” contains pretty melodic fragments interspersed with free ruminations, and sometimes the two alternating moods are occurring together.
As for my imaginary “side two,” “Path” begins with Bisio’s bowed bass mixed with some plucked notes. Like Shipp, Bisio takes the melody where it wants to go and that lasts for more than half of this ten-minute track before Shipp picks up where Bisio leaves off, riding appregiated chords to a subtly quickened pace before gently dissipating. Dickey’s spotlight appears at the beginning of “Pulse Code” with an uncluttered but expressive drum solo. Eventually, Shipp offers up some crushed chords before the song quickly concludes.
For “Solid Circut,” it’s Shipp’s turn to begin the performance alone. The way he modulates his tempo is just as important in the musical message he’s sending as the notes he’s playing. Remindful of last year’s sublime Piano Sutras, this lasts for nearly five minutes before his rhythm section ushers themselves in. The vibe from that solo part remains when Bisio and Dickey appear, but now there are now three performers playing out Shipp’s thoughts introduced when he was playing unaccompanied; later on, Shipp and Bisio improvise together in almost hushed tones.
Shipp is one of the last truly original piano improvisers; no one since him can match his depth without sounding too much like someone else. Like prior Matthew Shipp Trio recordings, Root of Things extends those unique qualities to a three-man unit. Also like those prior releases, they find new ways of standing apart. (Victor S. Aaron)
 
Состав

Matthew Shipp - piano
Michael Bisio - bass
Whit Dickey - drums
По всем вопросам пишите личное сообщение пользователю M0p94ok.
03:26
207
Нет комментариев. Ваш будет первым!