Вы используете незарегистрированную версию компонента "Вкладки"!

Поиск

(Free Jazz, Percussion Music) [CD] Hamid Drake & Jesse Stewart - Timelines - 2013, FLAC (tracks+.cue), lossless

(Free Jazz, Percussion Music) [CD] Hamid Drake & Jesse Stewart - Timelines - 2013, FLAC (tracks+.cue), lossless
Треклист:
Hamid Drake & Jesse Stewart / Timelines
Жанр: Free Jazz, Percussion Music
Носитель: CD
Страна-производитель диска: Canada
Год издания: 2013
Издатель (лейбл): Art Stew Records
Номер по каталогу: ASR 001
Страна: US
Аудиокодек: FLAC (*.flac)
Тип рипа: tracks+.cue
Битрейт аудио: lossless
Продолжительность: 52:10
Источник (релизер): waffles.fm, Anonymous
Наличие сканов в содержимом раздачи:
Треклист:
1 Lotus 7:18
2 D.U.O. (Do Unto Others) 11:56
3 Waves 5:57
4 Different Hats 5:56
5 Low Blow 3:56
6 Drum Nerds 8:07
7 Joyful Noise 3:19
8 Heavy Metal 5:16
 
Лог создания рипа
Exact Audio Copy V1.0 beta 3 from 29. August 2011
EAC extraction logfile from 29. December 2013, 5:13
Hamid Drake and Jesse Stewart / Timelines
Used drive : HL-DT-STDVD+-RW GH50N Adapter: 1 ID: 0
Read mode : Secure
Utilize accurate stream : Yes
Defeat audio cache : Yes
Make use of C2 pointers : No
Read offset correction : 667
Overread into Lead-In and Lead-Out : No
Fill up missing offset samples with silence : Yes
Delete leading and trailing silent blocks : No
Null samples used in CRC calculations : Yes
Used interface : Native Win32 interface for Win NT & 2000
Gap handling : Appended to previous track
Used output format : User Defined Encoder
Selected bitrate : 1024 kBit/s
Quality : High
Add ID3 tag : No
Command line compressor : C:\Program Files (x86)\Exact Audio Copy\Flac\flac.exe
Additional command line options : -8 -V -T "ARTIST=%artist%" -T "TITLE=%title%" -T "ALBUM=%albumtitle%" -T "DATE=%year%" -T "TRACKNUMBER=%tracknr%" -T "GENRE=%genre%" -T "PERFORMER=%albuminterpret%" -T "COMPOSER=%composer%" %haslyrics%--tag-from-file=LYRICS="%lyricsfile%"%haslyrics% -T "ALBUMARTIST=%albumartist%" -T "DISCNUMBER=%cdnumber%" -T "TOTALDISCS=%totalcds%" -T "TOTALTRACKS=%numtracks%" -T "COMMENT=%comment%" %source% -o %dest%
TOC of the extracted CD
Track | Start | Length | Start sector | End sector
---------------------------------------------------------
1 | 0:00.00 | 7:21.40 | 0 | 33114
2 | 7:21.40 | 11:58.34 | 33115 | 86998
3 | 19:19.74 | 6:00.48 | 86999 | 114046
4 | 25:20.47 | 6:00.25 | 114047 | 141071
5 | 31:20.72 | 3:59.58 | 141072 | 159054
6 | 35:20.55 | 8:11.34 | 159055 | 195913
7 | 43:32.14 | 3:22.18 | 195914 | 211081
8 | 46:54.32 | 5:16.18 | 211082 | 234799
Track 1
Filename C:\EAC Rips\Hamid Drake and Jesse Stewart - Timelines (2013) [FLAC]\01 - Lotus.wav
Pre-gap length 0:00:02.00
Peak level 97.7 %
Extraction speed 1.9 X
Track quality 99.9 %
Test CRC D83819C1
Copy CRC D83819C1
Track not present in AccurateRip database
Copy OK
Track 2
Filename C:\EAC Rips\Hamid Drake and Jesse Stewart - Timelines (2013) [FLAC]\02 - D.U.O. (Do Unto Others).wav
Pre-gap length 0:00:03.17
Peak level 97.7 %
Extraction speed 2.5 X
Track quality 99.9 %
Test CRC E185A183
Copy CRC E185A183
Track not present in AccurateRip database
Copy OK
Track 3
Filename C:\EAC Rips\Hamid Drake and Jesse Stewart - Timelines (2013) [FLAC]\03 - Waves.wav
Pre-gap length 0:00:02.00
Peak level 97.7 %
Extraction speed 2.9 X
Track quality 100.0 %
Test CRC 259241D5
Copy CRC 259241D5
Track not present in AccurateRip database
Copy OK
Track 4
Filename C:\EAC Rips\Hamid Drake and Jesse Stewart - Timelines (2013) [FLAC]\04 - Different Hats.wav
Pre-gap length 0:00:03.17
Peak level 97.7 %
Extraction speed 3.2 X
Track quality 100.0 %
Test CRC 1647A0D5
Copy CRC 1647A0D5
Track not present in AccurateRip database
Copy OK
Track 5
Filename C:\EAC Rips\Hamid Drake and Jesse Stewart - Timelines (2013) [FLAC]\05 - Low Blow.wav
Pre-gap length 0:00:04.12
Peak level 97.7 %
Extraction speed 3.2 X
Track quality 100.0 %
Test CRC A89AAD37
Copy CRC A89AAD37
Track not present in AccurateRip database
Copy OK
Track 6
Filename C:\EAC Rips\Hamid Drake and Jesse Stewart - Timelines (2013) [FLAC]\06 - Drum Nerds.wav
Pre-gap length 0:00:03.17
Peak level 97.7 %
Extraction speed 3.6 X
Track quality 100.0 %
Test CRC 95C05524
Copy CRC 95C05524
Track not present in AccurateRip database
Copy OK
Track 7
Filename C:\EAC Rips\Hamid Drake and Jesse Stewart - Timelines (2013) [FLAC]\07 - Joyful Noise.wav
Pre-gap length 0:00:03.64
Peak level 97.7 %
Extraction speed 3.5 X
Track quality 100.0 %
Test CRC 6B13AAAB
Copy CRC 6B13AAAB
Track not present in AccurateRip database
Copy OK
Track 8
Filename C:\EAC Rips\Hamid Drake and Jesse Stewart - Timelines (2013) [FLAC]\08 - Heavy Metal.wav
Pre-gap length 0:00:03.02
Peak level 97.7 %
Extraction speed 3.8 X
Track quality 100.0 %
Test CRC 37661E3B
Copy CRC 37661E3B
Track not present in AccurateRip database
Copy OK
None of the tracks are present in the AccurateRip database
No errors occurred
End of status report
---- CUETools DB Plugin V2.1.3
[CTDB TOCID: zO5yhD0aBQ8j7GNfxW4.sKWcZog-] disk not present in database, Submit result: zO5yhD0aBQ8j7GNfxW4.sKWcZog- has been uploaded
==== Log checksum BFB9246C5449D4CA673FFD9A2D9B4455407BA7A55394BDF56BF23F9F41B8C2AE ====
 
Содержание индексной карты (.CUE)
REM GENRE Jazz
REM DATE 2013
REM DISCID 580C3A08
REM COMMENT "ExactAudioCopy v1.0b3"
PERFORMER "Hamid Drake and Jesse Stewart"
TITLE "Timelines"
FILE "01 - Lotus.wav" WAVE
TRACK 01 AUDIO
TITLE "Lotus"
PERFORMER "Hamid Drake and Jesse Stewart"
ISRC CAGO31300001
INDEX 01 00:00:00
TRACK 02 AUDIO
TITLE "D.U.O. (Do Unto Others)"
PERFORMER "Hamid Drake and Jesse Stewart"
ISRC CAGO31300002
INDEX 00 07:18:27
FILE "02 - D.U.O. (Do Unto Others).wav" WAVE
INDEX 01 00:00:00
TRACK 03 AUDIO
TITLE "Waves"
PERFORMER "Hamid Drake and Jesse Stewart"
ISRC CAGO31300003
INDEX 00 11:56:34
FILE "03 - Waves.wav" WAVE
INDEX 01 00:00:00
TRACK 04 AUDIO
TITLE "Different Hats"
PERFORMER "Hamid Drake and Jesse Stewart"
ISRC CAGO31300004
INDEX 00 05:57:35
FILE "04 - Different Hats.wav" WAVE
INDEX 01 00:00:00
TRACK 05 AUDIO
TITLE "Low Blow"
PERFORMER "Hamid Drake and Jesse Stewart"
ISRC CAGO31300005
INDEX 00 05:56:16
FILE "05 - Low Blow.wav" WAVE
INDEX 01 00:00:00
TRACK 06 AUDIO
TITLE "Drum Nerds"
PERFORMER "Hamid Drake and Jesse Stewart"
ISRC CAGO31300006
INDEX 00 03:56:45
FILE "06 - Drum Nerds.wav" WAVE
INDEX 01 00:00:00
TRACK 07 AUDIO
TITLE "Joyful Noise"
PERFORMER "Hamid Drake and Jesse Stewart"
ISRC CAGO31300007
INDEX 00 08:07:61
FILE "07 - Joyful Noise.wav" WAVE
INDEX 01 00:00:00
TRACK 08 AUDIO
TITLE "Heavy Metal"
PERFORMER "Hamid Drake and Jesse Stewart"
ISRC CAGO31300008
INDEX 00 03:19:16
FILE "08 - Heavy Metal.wav" WAVE
INDEX 01 00:00:00
 
Лог проверки качества
d:\>d:\aucdtect -d/-m0 d:\zzz\*.wav
auCDtect: CD records authenticity detector, version 0.8.2
Copyright (c) 2004 Oleg Berngardt. All rights reserved.
Copyright (c) 2004 Alexander Djourik. All rights reserved.
------------------------------------------------------------
Processing file: [01. Lotus.wav]
------------------------------------------------------------
This track looks like CDDA with probability 100%
------------------------------------------------------------
Processing file: [02. D.U.O. (Do Unto Others).wav]
------------------------------------------------------------
This track looks like CDDA with probability 99%
------------------------------------------------------------
Processing file: [03. Waves.wav]
------------------------------------------------------------
This track looks like CDDA with probability 99%
------------------------------------------------------------
Processing file: [04. Different Hats.wav]
------------------------------------------------------------
This track looks like CDDA with probability 100%
------------------------------------------------------------
Processing file: [05. Low Blow.wav]
------------------------------------------------------------
This track looks like CDDA with probability 100%
------------------------------------------------------------
Processing file: [06. Drum Nerds.wav]
------------------------------------------------------------
This track looks like CDDA with probability 100%
------------------------------------------------------------
Processing file: [07. Joyful Noise.wav]
------------------------------------------------------------
This track looks like CDDA with probability 100%
------------------------------------------------------------
Processing file: [08. Heavy Metal.wav]
------------------------------------------------------------
This track looks like CDDA with probability 100%
------------------------------------------------------------
Final Conclusion:
------------------------------------------------------------
These tracks looks like CDDA with probability 100%
Доп. информация:
 
Album Info
Timelines features two extraordinary percussionists: Hamid Drake and Jesse Stewart.
Chicago-based drumming legend Hamid Drake is one of the busiest musicians on the scene today. He has worked with a veritable who’s who of contemporary jazz and creative improvised music including Pharoah Sanders, Don Cherry, John Zorn, William Parker, Peter Brotzmann, Fred Anderson, David Murray, and many others. Canadian percussionist Jesse Stewart has similarly performed and/or recorded with many musical luminaries including Pauline Oliveros, Roswell Rudd, George Lewis, and David Mott. In 2012, he was honoured with the “Instrumental Album of the Year” JUNO award for his work with the genre-defying trio Stretch Orchestra.
Together, Drake and Stewart have created a recording that redefines the parameters for the drum duo. This is not a drum battle, rather a drum dialogue that explores the world of percussive sound. In addition to two drum sets, Timelines features a wide assortment of percussion instruments including cajon, congas, tongue drum, frame drum, waterphone, gongs, bells, and cymbals, as well as bass harmonica and vocals. All of the pieces were improvised. There are no overdubs or edits. The listener hears what the musicians heard as they created the music together. The result is a recording that is rooted in deep musicality, mutual respect, and joyful sonic exploration.
 
Состав
Hamid Drake, Jesse Stewart: drums & percussion
По всем вопросам пишите личное сообщение пользователю M0p94ok.
23:57
149
Нет комментариев. Ваш будет первым!