Поиск

(Contemporary Jazz, Plainisphare) [CD] Le Quintette Popolien (Jean-Francois Bovard, Hans Koch, Michel Bastet, Popol Lavanchy, Olivier Clerc) - Un drole d'oiseau - 1991, FLAC (tracks+.cue), lossless

(Contemporary Jazz, Plainisphare) [CD] Le Quintette Popolien (Jean-Francois Bovard, Hans Koch, Michel Bastet, Popol Lavanchy, Olivier Clerc) - Un drole d'oiseau - 1991, FLAC (tracks+.cue), lossless
Le Quintette Popolien / Un drôle d'oiseau
Жанр: Contemporary Jazz, Plainisphare
Носитель: CD
Страна-производитель диска: Switzerland
Год издания: 1991
Издатель (лейбл): Plainisphare
Номер по каталогу: PL 1267-64 CD
Аудиокодек: FLAC (*.flac)
Тип рипа: tracks+.cue
Битрейт аудио: lossless
Продолжительность: 50:16
Источник (релизер): я
Наличие сканов в содержимом раздачи: да
Треклист:
1. Un drôle d’oiseau 6:58
2. Dr Joseph & Mr Haydn 10:02
3. Taches de bougie 6:32
4. Tutti frotti 4:18
5. Le Chant du « Miche » (jour férié au pays d’Enhaut) 6:04
6. Les P’tits Nains (jour ouvrable au pays d’Enbas) 16:23
Compositions de Popol Lavanchy.
Jean-François Bovard – trombone
Hans Koch – clarinette basse, saxophones soprano et ténor
Michel Bastet – piano
Popol Lavanchy – contrebasse
Olivier Clerc – batterie
 
Лог создания рипа
Exact Audio Copy V1.0 beta 3 from 29. August 2011
EAC extraction logfile from 22. January 2014, 12:19
Le Quintette Popolien / Un drôle d'oiseau
Used drive : SlimtypeeNAU508 5 Adapter: 1 ID: 0
Read mode : Secure
Utilize accurate stream : Yes
Defeat audio cache : Yes
Make use of C2 pointers : No
Read offset correction : 6
Overread into Lead-In and Lead-Out : No
Fill up missing offset samples with silence : Yes
Delete leading and trailing silent blocks : No
Null samples used in CRC calculations : Yes
Used interface : Native Win32 interface for Win NT & 2000
Gap handling : Appended to previous track
Used output format : User Defined Encoder
Selected bitrate : 768 kBit/s
Quality : High
Add ID3 tag : No
Command line compressor : C:\Program Files (x86)\Exact Audio Copy\Flac\flac.exe
Additional command line options : -8 -V -T "ARTIST=%artist%" -T "TITLE=%title%" -T "ALBUM=%albumtitle%" -T "DATE=%year%" -T "TRACKNUMBER=%tracknr%" -T "GENRE=%genre%" -T "PERFORMER=%albuminterpret%" -T "COMPOSER=%composer%" %haslyrics%--tag-from-file=LYRICS="%lyricsfile%"%haslyrics% -T "ALBUMARTIST=%albumartist%" -T "DISCNUMBER=%cdnumber%" -T "TOTALDISCS=%totalcds%" -T "TOTALTRACKS=%numtracks%" -T "COMMENT=%comment%" %source% -o %dest%
TOC of the extracted CD
Track | Start | Length | Start sector | End sector
---------------------------------------------------------
1 | 0:00.00 | 6:57.53 | 0 | 31327
2 | 6:57.53 | 10:01.45 | 31328 | 76447
3 | 16:59.23 | 6:31.55 | 76448 | 105827
4 | 23:31.03 | 4:18.37 | 105828 | 125214
5 | 27:49.40 | 6:04.25 | 125215 | 152539
6 | 33:53.65 | 16:22.45 | 152540 | 226234
Track 1
Filename C:\EAC rips\01 - Un drôle d'oiseau.wav
Pre-gap length 0:00:02.00
Peak level 88.7 %
Extraction speed 2.3 X
Track quality 100.0 %
Test CRC A1D65688
Copy CRC A1D65688
Accurately ripped (confidence 1) [C89FA4D9] (AR v2)
Copy OK
Track 2
Filename C:\EAC rips\02 - Dr Joseph & Mr Haydn.wav
Pre-gap length 0:00:04.33
Peak level 78.9 %
Extraction speed 2.6 X
Track quality 99.9 %
Test CRC E980EFAC
Copy CRC E980EFAC
Accurately ripped (confidence 1) [0D5D82E6] (AR v2)
Copy OK
Track 3
Filename C:\EAC rips\03 - Taches de bougie.wav
Pre-gap length 0:00:05.23
Peak level 47.4 %
Extraction speed 2.8 X
Track quality 99.9 %
Test CRC F58FDBF8
Copy CRC F58FDBF8
Accurately ripped (confidence 1) [26F27F78] (AR v2)
Copy OK
Track 4
Filename C:\EAC rips\04 - Tutti frotti.wav
Pre-gap length 0:00:03.25
Peak level 51.7 %
Extraction speed 3.2 X
Track quality 100.0 %
Test CRC B56D6468
Copy CRC B56D6468
Track not present in AccurateRip database
Copy OK
Track 5
Filename C:\EAC rips\05 - Le Chant du ''Miche'' (jour férié au pays d'Enhaut).wav
Pre-gap length 0:00:06.05
Peak level 81.7 %
Extraction speed 3.5 X
Track quality 100.0 %
Test CRC 26D1A2AC
Copy CRC 26D1A2AC
Track not present in AccurateRip database
Copy OK
Track 6
Filename C:\EAC rips\06 - Les P'tits Nains (jour ouvrable au pays d'Enbas).wav
Pre-gap length 0:00:01.60
Peak level 98.2 %
Extraction speed 4.2 X
Track quality 100.0 %
Test CRC A85F644B
Copy CRC A85F644B
Track not present in AccurateRip database
Copy OK
3 track(s) accurately ripped
3 track(s) not present in the AccurateRip database
Some tracks could not be verified as accurate
No errors occurred
End of status report
---- CUETools DB Plugin V2.1.4
[CTDB TOCID: 8QaR6fCQRsDYYPx1s80os1vGZcI-] disk not present in database
Submit result: 8QaR6fCQRsDYYPx1s80os1vGZcI- has been uploaded
==== Log checksum 4669285F6BA87B6D63991FA499F153E488DC1D3871589706E66C667E3A50BDEF ====
 
Содержание индексной карты (.CUE)
REM GENRE Jazz
REM DATE 1991
REM DISCID 360BC806
REM COMMENT "ExactAudioCopy v1.0b3"
PERFORMER "Le Quintette Popolien"
TITLE "Un drôle d'oiseau"
FILE "01 - Un drôle d'oiseau.wav" WAVE
TRACK 01 AUDIO
TITLE "Un drôle d'oiseau"
PERFORMER "Le Quintette Popolien"
INDEX 01 00:00:00
TRACK 02 AUDIO
TITLE "Dr Joseph & Mr Haydn"
PERFORMER "Le Quintette Popolien"
INDEX 00 06:53:20
FILE "02 - Dr Joseph & Mr Haydn.wav" WAVE
INDEX 01 00:00:00
TRACK 03 AUDIO
TITLE "Taches de bougie"
PERFORMER "Le Quintette Popolien"
INDEX 00 09:56:22
FILE "03 - Taches de bougie.wav" WAVE
INDEX 01 00:00:00
TRACK 04 AUDIO
TITLE "Tutti frotti"
PERFORMER "Le Quintette Popolien"
INDEX 00 06:28:30
FILE "04 - Tutti frotti.wav" WAVE
INDEX 01 00:00:00
TRACK 05 AUDIO
TITLE "Le Chant du 'Miche' (jour férié au pays d'Enhaut)"
PERFORMER "Le Quintette Popolien"
INDEX 00 04:12:32
FILE "05 - Le Chant du ''Miche'' (jour férié au pays d'Enhaut).wav" WAVE
INDEX 01 00:00:00
TRACK 06 AUDIO
TITLE "Les P'tits Nains (jour ouvrable au pays d'Enbas)"
PERFORMER "Le Quintette Popolien"
INDEX 00 06:02:40
FILE "06 - Les P'tits Nains (jour ouvrable au pays d'Enbas).wav" WAVE
INDEX 01 00:00:00
23:57
276
Нет комментариев. Ваш будет первым!