Вы используете незарегистрированную версию компонента "Вкладки"!

Поиск

(Free Improvisation) [CD] The Source - Olemanns Kornett - 1994, FLAC (tracks+.cue), lossless

(Free Improvisation) [CD] The Source - Olemanns Kornett - 1994, FLAC (tracks+.cue), lossless
Треклист:
♦ The Source - Olemanns Kornett ♦
Жанр: Free Improvisation
Носитель: CD
Страна-производитель диска: Norway
Год издания: 1994
Издатель (лейбл): Curling Legs
Номер по каталогу: C.L.P. CD 10
Аудиокодек: FLAC (*.flac)
Тип рипа: tracks+.cue
Битрейт аудио: lossless
Продолжительность: 00:56:54
Источник (релизер): Рип с диска.
Наличие сканов в содержимом раздачи: да
Треклист:
01. Blues Connotation [00:34]
02. Goodbye Mr. Mingus [08:31]
03. Gringo [06:03]
04. Burlesque [03:57]
05. Eddie in the clouds of Mermaids [04:08]
06. Veps i Kupeen [06:00]
07. Pause [03:14]
08. Bakke Bru [07:45]
09. Theloniusphere [02:44]
10. Olemanns Cornette [07:16]
11. Linedans [05:13]
12. Tango [01:23]
 
Лог создания рипа
Exact Audio Copy V1.0 beta 3 from 29. August 2011
EAC extraction logfile from 5. March 2014, 21:10
The Source / Olemanns kornett
Used drive : ATAPI iHAS124 D Adapter: 1 ID: 0
Read mode : Secure
Utilize accurate stream : Yes
Defeat audio cache : Yes
Make use of C2 pointers : No
Read offset correction : 6
Overread into Lead-In and Lead-Out : No
Fill up missing offset samples with silence : Yes
Delete leading and trailing silent blocks : No
Null samples used in CRC calculations : Yes
Used interface : Native Win32 interface for Win NT & 2000
Gap handling : Appended to previous track
Used output format : User Defined Encoder
Selected bitrate : 128 kBit/s
Quality : High
Add ID3 tag : No
Command line compressor : C:\Program Files (x86)\Exact Audio Copy\Flac\flac.exe
Additional command line options : -V -8 -T "Genre=%genre%" -T "Artist=%artist%" -T "Title=%title%" -T "Album=%albumtitle%" -T "Date=%year%" -T "Tracknumber=%tracknr%" -T "Comment=%comment%" %source%
TOC of the extracted CD
Track | Start | Length | Start sector | End sector
---------------------------------------------------------
1 | 0:00.00 | 0:34.60 | 0 | 2609
2 | 0:34.60 | 8:31.73 | 2610 | 41007
3 | 9:06.58 | 6:03.40 | 41008 | 68272
4 | 15:10.23 | 3:57.57 | 68273 | 86104
5 | 19:08.05 | 4:08.28 | 86105 | 104732
6 | 23:16.33 | 6:00.62 | 104733 | 131794
7 | 29:17.20 | 3:14.23 | 131795 | 146367
8 | 32:31.43 | 7:45.10 | 146368 | 181252
9 | 40:16.53 | 2:44.32 | 181253 | 193584
10 | 43:01.10 | 7:16.15 | 193585 | 226299
11 | 50:17.25 | 5:13.08 | 226300 | 249782
12 | 55:30.33 | 1:23.57 | 249783 | 256064
Track 1
Filename D:\1994.The Source - Olemanns Kornett\01. Blues Connotation.wav
Pre-gap length 0:00:02.00
Peak level 23.8 %
Extraction speed 2.7 X
Track quality 100.0 %
Test CRC 25E5F0B7
Copy CRC 25E5F0B7
Cannot be verified as accurate (confidence 1) [0AAB2F7E], AccurateRip returned [EF23748B] (AR v2)
Copy OK
Track 2
Filename D:\1994.The Source - Olemanns Kornett\02. Goodbye Mr. Mingus.wav
Peak level 94.8 %
Extraction speed 6.0 X
Track quality 100.0 %
Test CRC DC5091CE
Copy CRC DC5091CE
Cannot be verified as accurate (confidence 1) [ACF266D6], AccurateRip returned [F115CEC6] (AR v2)
Copy OK
Track 3
Filename D:\1994.The Source - Olemanns Kornett\03. Gringo.wav
Pre-gap length 0:00:01.40
Peak level 98.1 %
Extraction speed 6.3 X
Track quality 99.9 %
Test CRC C8866432
Copy CRC C8866432
Cannot be verified as accurate (confidence 1) [2AB1D487], AccurateRip returned [72E7EA8E] (AR v2)
Copy OK
Track 4
Filename D:\1994.The Source - Olemanns Kornett\04. Burlesque.wav
Pre-gap length 0:00:01.08
Peak level 96.6 %
Extraction speed 7.1 X
Track quality 100.0 %
Test CRC 9B0F2146
Copy CRC 9B0F2146
Cannot be verified as accurate (confidence 1) [C846C388], AccurateRip returned [5F315342] (AR v2)
Copy OK
Track 5
Filename D:\1994.The Source - Olemanns Kornett\05. Eddie in the clouds of Mermaids.wav
Pre-gap length 0:00:01.62
Peak level 33.8 %
Extraction speed 7.5 X
Track quality 100.0 %
Test CRC C9768BFE
Copy CRC C9768BFE
Cannot be verified as accurate (confidence 1) [144993E0], AccurateRip returned [0F5A6EEE] (AR v2)
Copy OK
Track 6
Filename D:\1994.The Source - Olemanns Kornett\06. Veps i Kupeen.wav
Pre-gap length 0:00:04.13
Peak level 85.0 %
Extraction speed 8.4 X
Track quality 100.0 %
Test CRC DDFCEBB1
Copy CRC DDFCEBB1
Cannot be verified as accurate (confidence 1) [6604581C], AccurateRip returned [CED7E41F] (AR v2)
Copy OK
Track 7
Filename D:\1994.The Source - Olemanns Kornett\07. Pause.wav
Peak level 34.1 %
Extraction speed 8.1 X
Track quality 100.0 %
Test CRC 57CB0FBE
Copy CRC 57CB0FBE
Cannot be verified as accurate (confidence 1) [7030FD4F], AccurateRip returned [4269B7C4] (AR v2)
Copy OK
Track 8
Filename D:\1994.The Source - Olemanns Kornett\08. Bakke Bru.wav
Pre-gap length 0:00:02.43
Peak level 65.0 %
Extraction speed 8.9 X
Track quality 99.9 %
Test CRC 769C62BE
Copy CRC 769C62BE
Cannot be verified as accurate (confidence 1) [0D43589B], AccurateRip returned [2AFB9D44] (AR v2)
Copy OK
Track 9
Filename D:\1994.The Source - Olemanns Kornett\09. Theloniusphere.wav
Pre-gap length 0:00:03.56
Peak level 92.6 %
Extraction speed 8.8 X
Track quality 100.0 %
Test CRC 81666F0E
Copy CRC 81666F0E
Cannot be verified as accurate (confidence 1) [BA21E57F], AccurateRip returned [FC7C86D5] (AR v2)
Copy OK
Track 10
Filename D:\1994.The Source - Olemanns Kornett\10. Olemanns Cornette.wav
Pre-gap length 0:00:03.10
Peak level 86.7 %
Extraction speed 10.3 X
Track quality 100.0 %
Test CRC 81B45863
Copy CRC 81B45863
Cannot be verified as accurate (confidence 1) [CFD7EE91], AccurateRip returned [2CECE1D9] (AR v2)
Copy OK
Track 11
Filename D:\1994.The Source - Olemanns Kornett\11. Linedans.wav
Pre-gap length 0:00:01.35
Peak level 76.2 %
Extraction speed 10.5 X
Track quality 100.0 %
Test CRC C741A876
Copy CRC C741A876
Cannot be verified as accurate (confidence 1) [B6B24A64], AccurateRip returned [F3F8A1B7] (AR v2)
Copy OK
Track 12
Filename D:\1994.The Source - Olemanns Kornett\12. Tango.wav
Pre-gap length 0:00:01.11
Peak level 56.0 %
Extraction speed 8.3 X
Track quality 100.0 %
Test CRC 80F63732
Copy CRC 80F63732
Cannot be verified as accurate (confidence 1) [9B6D6F23], AccurateRip returned [76472E18] (AR v2)
Copy OK
No tracks could be verified as accurate
You may have a different pressing from the one(s) in the database
No errors occurred
End of status report
==== Log checksum 0C63C3E2D9F38F824C51C59E574C5C66786C288C7C0230F36363C6F233AF65D6 ====
 
Содержание индексной карты (.CUE)
REM GENRE Jazz
REM DATE 1994
REM DISCID A50D560C
REM COMMENT "ExactAudioCopy v1.0b3"
PERFORMER "The Source"
TITLE "Olemanns kornett"
FILE "01. Blues Connotation.wav" WAVE
TRACK 01 AUDIO
TITLE "Blues Connotation"
PERFORMER "The Source"
INDEX 01 00:00:00
FILE "02. Goodbye Mr. Mingus.wav" WAVE
TRACK 02 AUDIO
TITLE "Goodbye Mr. Mingus"
PERFORMER "The Source"
INDEX 01 00:00:00
TRACK 03 AUDIO
TITLE "Gringo"
PERFORMER "The Source"
INDEX 00 08:30:33
FILE "03. Gringo.wav" WAVE
INDEX 01 00:00:00
TRACK 04 AUDIO
TITLE "Burlesque"
PERFORMER "The Source"
INDEX 00 06:02:32
FILE "04. Burlesque.wav" WAVE
INDEX 01 00:00:00
TRACK 05 AUDIO
TITLE "Eddie in the clouds of Mermaids"
PERFORMER "The Source"
INDEX 00 03:55:70
FILE "05. Eddie in the clouds of Mermaids.wav" WAVE
INDEX 01 00:00:00
TRACK 06 AUDIO
TITLE "Veps i Kupeen"
PERFORMER "The Source"
INDEX 00 04:04:15
FILE "06. Veps i Kupeen.wav" WAVE
INDEX 01 00:00:00
FILE "07. Pause.wav" WAVE
TRACK 07 AUDIO
TITLE "Pause"
PERFORMER "The Source"
INDEX 01 00:00:00
TRACK 08 AUDIO
TITLE "Bakke Bru"
PERFORMER "The Source"
INDEX 00 03:11:55
FILE "08. Bakke Bru.wav" WAVE
INDEX 01 00:00:00
TRACK 09 AUDIO
TITLE "Theloniusphere"
PERFORMER "The Source"
INDEX 00 07:41:29
FILE "09. Theloniusphere.wav" WAVE
INDEX 01 00:00:00
TRACK 10 AUDIO
TITLE "Olemanns Cornette"
PERFORMER "The Source"
INDEX 00 02:41:22
FILE "10. Olemanns Cornette.wav" WAVE
INDEX 01 00:00:00
TRACK 11 AUDIO
TITLE "Linedans"
PERFORMER "The Source"
INDEX 00 07:14:55
FILE "11. Linedans.wav" WAVE
INDEX 01 00:00:00
TRACK 12 AUDIO
TITLE "Tango"
PERFORMER "The Source"
INDEX 00 05:11:72
FILE "12. Tango.wav" WAVE
INDEX 01 00:00:00
 
Состав
Personnel: Trygve Seim - saxophones, Oyvind Braekke - tb, Ingebrigt Flaten - b, Per Oddvar Johansen - dr.
По всем вопросам пишите личное сообщение пользователю M0p94ok.
23:58
147
Нет комментариев. Ваш будет первым!