Вы используете незарегистрированную версию компонента "Вкладки"!

Поиск

(Christmas Jazz, Free Improvisation) [CD] The Source - Of Christmas - 1995, FLAC (tracks+.cue), lossless

(Christmas Jazz, Free Improvisation) [CD] The Source - Of Christmas - 1995, FLAC (tracks+.cue), lossless
Треклист:
♦ The Source - Of Christmas ♦
Жанр: Christmas Jazz, Free Improvisation
Носитель: CD
Страна-производитель диска: Norway
Год издания: 1995
Издатель (лейбл): BIEM
Номер по каталогу: C.L.P. CD 21
Аудиокодек: FLAC (*.flac)
Тип рипа: tracks+.cue
Битрейт аудио: lossless
Продолжительность: 00:45:51
Источник (релизер): Рип с диска.
Наличие сканов в содержимом раздачи: да
Треклист:
01. Deck The Halls [00:15]
02. Winter Wonderland [05:42]
03. Det Kimer Nu Til Julefest [02:30]
04. Du Gronne Glitrende Tre, Dod Dag (Sang til juletreet) [05:53]
05. Julekveldvisa [03:31]
06. Musevisa [03:58]
07. The Christmas Song (Chestnuts Roasting On An OpEn Fire) [03:13]
08. Jingle Bells [00:46]
09. Jeg Er Sa Glad Hver Julekveld [02:33]
10. Winter Wonderland [01:37]
11. Jeg Synger Julekvad (In Dolce Jobili) [05:23]
12. When U Wish Upon A [10:25]
 
Лог создания рипа
Exact Audio Copy V1.0 beta 3 from 29. August 2011
EAC extraction logfile from 5. March 2014, 10:16
The Source / Of Christmas
Used drive : ATAPI iHAS124 D Adapter: 1 ID: 0
Read mode : Secure
Utilize accurate stream : Yes
Defeat audio cache : Yes
Make use of C2 pointers : No
Read offset correction : 6
Overread into Lead-In and Lead-Out : No
Fill up missing offset samples with silence : Yes
Delete leading and trailing silent blocks : No
Null samples used in CRC calculations : Yes
Used interface : Native Win32 interface for Win NT & 2000
Gap handling : Appended to previous track
Used output format : User Defined Encoder
Selected bitrate : 128 kBit/s
Quality : High
Add ID3 tag : No
Command line compressor : C:\Program Files (x86)\Exact Audio Copy\Flac\flac.exe
Additional command line options : -V -8 -T "Genre=%genre%" -T "Artist=%artist%" -T "Title=%title%" -T "Album=%albumtitle%" -T "Date=%year%" -T "Tracknumber=%tracknr%" -T "Comment=%comment%" %source%
TOC of the extracted CD
Track | Start | Length | Start sector | End sector
---------------------------------------------------------
1 | 0:00.00 | 0:15.37 | 0 | 1161
2 | 0:15.37 | 5:42.20 | 1162 | 26831
3 | 5:57.57 | 2:30.55 | 26832 | 38136
4 | 8:28.37 | 5:53.65 | 38137 | 64676
5 | 14:22.27 | 3:31.13 | 64677 | 80514
6 | 17:53.40 | 3:58.17 | 80515 | 98381
7 | 21:51.57 | 3:13.45 | 98382 | 112901
8 | 25:05.27 | 0:46.63 | 112902 | 116414
9 | 25:52.15 | 2:33.65 | 116415 | 127954
10 | 28:26.05 | 1:37.02 | 127955 | 135231
11 | 30:03.07 | 5:23.18 | 135232 | 159474
12 | 35:26.25 | 10:25.00 | 159475 | 206349
Track 1
Filename D:\1995.The Source - Of Christmas\01. Deck The Halls.wav
Pre-gap length 0:00:02.00
Peak level 79.1 %
Extraction speed 1.6 X
Track quality 100.0 %
Test CRC 95624905
Copy CRC 95624905
Track not present in AccurateRip database
Copy OK
Track 2
Filename D:\1995.The Source - Of Christmas\02. Winter Wonderland.wav
Peak level 100.0 %
Extraction speed 5.1 X
Track quality 99.9 %
Test CRC 4BBA7C5F
Copy CRC 4BBA7C5F
Track not present in AccurateRip database
Copy OK
Track 3
Filename D:\1995.The Source - Of Christmas\03. Det Kimer Nu Til Julefest.wav
Pre-gap length 0:00:01.47
Peak level 100.0 %
Extraction speed 4.5 X
Track quality 99.9 %
Test CRC 794A2C3D
Copy CRC 794A2C3D
Track not present in AccurateRip database
Copy OK
Track 4
Filename D:\1995.The Source - Of Christmas\04. Du Gronne Glitrende Tre, Dod Dag (Sang til juletreet).wav
Peak level 100.0 %
Extraction speed 6.1 X
Track quality 99.9 %
Test CRC 8C97C805
Copy CRC 8C97C805
Track not present in AccurateRip database
Copy OK
Track 5
Filename D:\1995.The Source - Of Christmas\05. Julekveldvisa.wav
Pre-gap length 0:00:02.50
Peak level 100.0 %
Extraction speed 6.0 X
Track quality 99.9 %
Test CRC 624F5DCA
Copy CRC 624F5DCA
Track not present in AccurateRip database
Copy OK
Track 6
Filename D:\1995.The Source - Of Christmas\06. Musevisa.wav
Pre-gap length 0:00:02.38
Peak level 99.9 %
Extraction speed 7.3 X
Track quality 100.0 %
Test CRC 2876E727
Copy CRC 2876E727
Track not present in AccurateRip database
Copy OK
Track 7
Filename D:\1995.The Source - Of Christmas\07. The Christmas Song (Chestnuts Roasting On An OpEn Fire).wav
Pre-gap length 0:00:02.22
Peak level 94.2 %
Extraction speed 7.4 X
Track quality 100.0 %
Test CRC F1E43F08
Copy CRC F1E43F08
Track not present in AccurateRip database
Copy OK
Track 8
Filename D:\1995.The Source - Of Christmas\08. Jingle Bells.wav
Pre-gap length 0:00:02.00
Peak level 83.8 %
Extraction speed 3.6 X
Track quality 99.7 %
Test CRC D8A95788
Copy CRC D8A95788
Track not present in AccurateRip database
Copy OK
Track 9
Filename D:\1995.The Source - Of Christmas\09. Jeg Er Sa Glad Hver Julekveld.wav
Pre-gap length 0:00:02.60
Peak level 100.0 %
Extraction speed 7.4 X
Track quality 100.0 %
Test CRC 80A6B5B6
Copy CRC 80A6B5B6
Track not present in AccurateRip database
Copy OK
Track 10
Filename D:\1995.The Source - Of Christmas\10. Winter Wonderland.wav
Pre-gap length 0:00:01.58
Peak level 100.0 %
Extraction speed 6.8 X
Track quality 100.0 %
Test CRC 9F17A629
Copy CRC 9F17A629
Track not present in AccurateRip database
Copy OK
Track 11
Filename D:\1995.The Source - Of Christmas\11. Jeg Synger Julekvad (In Dolce Jobili).wav
Peak level 85.1 %
Extraction speed 8.8 X
Track quality 100.0 %
Test CRC 2C05462F
Copy CRC 2C05462F
Track not present in AccurateRip database
Copy OK
Track 12
Filename D:\1995.The Source - Of Christmas\12. When U Wish Upon A.wav
Pre-gap length 0:00:03.66
Peak level 91.5 %
Extraction speed 10.0 X
Track quality 100.0 %
Test CRC BB314E5E
Copy CRC BB314E5E
Track not present in AccurateRip database
Copy OK
None of the tracks are present in the AccurateRip database
No errors occurred
End of status report
==== Log checksum 237F0726FD5AFA297D89FDA0359F4BA0577989D5C9F683EE43082AE137350C6B ====
 
Содержание индексной карты (.CUE)
REM GENRE Jazz
REM DATE 1995
REM DISCID 8F0ABF0C
REM COMMENT "ExactAudioCopy v1.0b3"
PERFORMER "The Source"
TITLE "Of Christmas"
FILE "01. Deck The Halls.wav" WAVE
TRACK 01 AUDIO
TITLE "Deck The Halls"
PERFORMER "The Source"
INDEX 01 00:00:00
FILE "02. Winter Wonderland.wav" WAVE
TRACK 02 AUDIO
TITLE "Winter Wonderland"
PERFORMER "The Source"
INDEX 01 00:00:00
TRACK 03 AUDIO
TITLE "Det Kimer Nu Til Julefest"
PERFORMER "The Source"
INDEX 00 05:40:48
FILE "03. Det Kimer Nu Til Julefest.wav" WAVE
INDEX 01 00:00:00
FILE "04. Du Gronne Glitrende Tre, Dod Dag (Sang til juletreet).wav" WAVE
TRACK 04 AUDIO
TITLE "Du Gronne Glitrende Tre, Dod Dag (Sang til juletreet)"
PERFORMER "The Source"
INDEX 01 00:00:00
TRACK 05 AUDIO
TITLE "Julekveldvisa"
PERFORMER "The Source"
INDEX 00 05:51:15
FILE "05. Julekveldvisa.wav" WAVE
INDEX 01 00:00:00
TRACK 06 AUDIO
TITLE "Musevisa"
PERFORMER "The Source"
INDEX 00 03:28:50
FILE "06. Musevisa.wav" WAVE
INDEX 01 00:00:00
TRACK 07 AUDIO
TITLE "The Christmas Song (Chestnuts Roasting On An OpEn Fire)"
PERFORMER "The Source"
INDEX 00 03:55:70
FILE "07. The Christmas Song (Chestnuts Roasting On An OpEn Fire).wav" WAVE
INDEX 01 00:00:00
TRACK 08 AUDIO
TITLE "Jingle Bells"
PERFORMER "The Source"
INDEX 00 03:11:45
FILE "08. Jingle Bells.wav" WAVE
INDEX 01 00:00:00
TRACK 09 AUDIO
TITLE "Jeg Er Sa Glad Hver Julekveld"
PERFORMER "The Source"
INDEX 00 00:44:03
FILE "09. Jeg Er Sa Glad Hver Julekveld.wav" WAVE
INDEX 01 00:00:00
TRACK 10 AUDIO
TITLE "Winter Wonderland"
PERFORMER "The Source"
INDEX 00 02:32:07
FILE "10. Winter Wonderland.wav" WAVE
INDEX 01 00:00:00
FILE "11. Jeg Synger Julekvad (In Dolce Jobili).wav" WAVE
TRACK 11 AUDIO
TITLE "Jeg Synger Julekvad (In Dolce Jobili)"
PERFORMER "The Source"
INDEX 01 00:00:00
TRACK 12 AUDIO
TITLE "When U Wish Upon A "
PERFORMER "The Source"
INDEX 00 05:19:27
FILE "12. When U Wish Upon A.wav" WAVE
INDEX 01 00:00:00
 
Состав
Personnel: Trygve Seim - saxophones, Oyvind Braekke - tb, Ingebrigt Flaten - b, Per Oddvar Johansen - dr.
По всем вопросам пишите личное сообщение пользователю M0p94ok.
23:56
130
Нет комментариев. Ваш будет первым!