Вы используете незарегистрированную версию компонента "Вкладки"!

Поиск

(Avant-Garde Jazz / Free Improvisation) [CD] Adam Caine Trio (Tom Blancarte, John Wagner) - Thousandfold - 2009, FLAC (tracks+.cue), lossless

(Avant-Garde Jazz / Free Improvisation) [CD] Adam Caine Trio (Tom Blancarte, John Wagner) - Thousandfold - 2009, FLAC (tracks+.cue), lossless
Треклист:
Adam Caine Trio - Thousandfold
Жанр: Avant-Garde Jazz / Free Improvisation
Носитель: CD
Страна-производитель диска: Lithuania
Год издания: 2009
Издатель (лейбл): NoBusiness Records
Номер по каталогу: NBCD 3 / edition of 1000 cd's
Аудиокодек: FLAC (*.flac)
Тип рипа: tracks+.cue
Битрейт аудио: lossless
Продолжительность: 01:01:26
Источник (релизер): nnm, Джаз Клуб, 2 марта, 2014 / спасибо mishka1981
Наличие сканов в содержимом раздачи: да
Треклист:
1. Outer Church (08:20)
2. Ride the Tiger (05:31)
3. Castros (08:51)
4. Thousandfold (10:32)
5. The Howl (08:29)
6. Invisible Kingdom (06:48)
7. Eschatology (07:46)
8. Human Body (05:07)
All compositions by Adam Caine, Tom Blancarte and John Wagner
Доп. информация:
Musicians:
Adam Caine - guitar
Tom Blancarte - bass
John Wagner - drums
Recorded 24/10/2008 by Steve Griesgraber at Soft Landing Studios, Brooklyn NY
© 2009, NoBusiness Records
Adam Caine Trio - Thousandfold nobusinessrecords.com
Adam Caine Trio - Thousandfold allaboutjazz.com
 
... back ...
 
... photo ...
 
... review ...
Guitarist Adam Caine displays his endlessly innovative creative instinct onThousandfold. Bassist Tom Blancarte and drummer John Wagner supply a steadfastly well-defined surface onto which Caine thoroughly infuses multidirectional vibrations as varied in color and texture as possible.
The guitarist splurges on extraordinarily unique patterns of fingering and plunges into chasms of reverberation. As sparks fly off his strings, Caine demonstrates expressive control of his instrument, the bass and the drums responsible for maintaining the hidden tempo beneath the persistence of staccato picking. Integrated with the thump of the bass drum, artful rattling of loose snare, low-end tom resonance, cymbal swishes or deep bass string pizzicatos, the guitar unwinds its fiery, nearly pointillist schema within indescribable improvisational bounds.
Caine changes the purity of the guitar's tone with more than ample pedaling and amplifier artifice. "Castros," "Howl," "Invisible Kingdom" and "Human Body" exemplify how he allows ornamentation to absorb, transform and expand the guitar's essential tonalities. He employs fingering that is slightly straightforward, then begins to bend pitches, strum, form clusters, use tiny glissandos, pluck in odd combinations and completely adjust the sequencing of the processes. In the title track, the guitar sound morphs into something akin to an organ.
The music has no identifiable thematic material, is self-referential and transpires so easily that locking into a listening trance might happen often. The guitar subsides infrequently into a place where the drums and bass come to the forefront, for instance, in the last three of eight cuts. The purest guitar tones end the record concurrently with a dusting of the snare.
Lyn Horton ~ allaboutjazz.com
 
Лог создания рипа
Exact Audio Copy V1.0 beta 1 from 15. November 2010
EAC extraction logfile from 2. March 2014, 20:45
Adam Caine Trio / Thousandfold
Used drive : Optiarc DVD RW AD-7710H Adapter: 1 ID: 0
Read mode : Secure
Utilize accurate stream : Yes
Defeat audio cache : Yes
Make use of C2 pointers : No
Read offset correction : 48
Overread into Lead-In and Lead-Out : No
Fill up missing offset samples with silence : Yes
Delete leading and trailing silent blocks : No
Null samples used in CRC calculations : Yes
Used interface : Native Win32 interface for Win NT & 2000
Gap handling : Appended to previous track
Used output format : User Defined Encoder
Selected bitrate : 896 kBit/s
Quality : High
Add ID3 tag : No
Command line compressor : C:\Program Files\Exact Audio Copy\FLAC\FLAC.EXE
Additional command line options : -8 -V -T "ARTIST=%a" -T "TITLE=%t" -T "ALBUM=%g" -T "DATE=%y" -T "TRACKNUMBER=%n" -T "GENRE=%m" -T "COMMENT=%e" %j--picture="%i"%j %s -o %d
TOC of the extracted CD
Track | Start | Length | Start sector | End sector
---------------------------------------------------------
1 | 0:01.00 | 8:23.32 | 75 | 37831
2 | 8:24.32 | 5:34.14 | 37832 | 62895
3 | 13:58.46 | 8:54.12 | 62896 | 102957
4 | 22:52.58 | 10:35.18 | 102958 | 150600
5 | 33:28.01 | 8:32.13 | 150601 | 189013
6 | 42:00.14 | 6:51.52 | 189014 | 219890
7 | 48:51.66 | 7:49.10 | 219891 | 255075
8 | 56:41.01 | 5:07.39 | 255076 | 278139
Track 1
Filename C:\MY RIPS\01 - 01 - Outer Church.wav
Pre-gap length 0:00:03.00
Peak level 100.0 %
Extraction speed 3.1 X
Track quality 100.0 %
Test CRC B29489EF
Copy CRC B29489EF
Track not present in AccurateRip database
Copy OK
Track 2
Filename C:\MY RIPS\02 - 02 - Ride the Tiger.wav
Pre-gap length 0:00:03.00
Peak level 100.0 %
Extraction speed 3.5 X
Track quality 100.0 %
Test CRC F7455885
Copy CRC F7455885
Track not present in AccurateRip database
Copy OK
Track 3
Filename C:\MY RIPS\03 - 03 - Castros.wav
Pre-gap length 0:00:03.00
Peak level 100.0 %
Extraction speed 4.1 X
Track quality 100.0 %
Test CRC DBE9BCDA
Copy CRC DBE9BCDA
Track not present in AccurateRip database
Copy OK
Track 4
Filename C:\MY RIPS\04 - 04 - Thousandfold.wav
Pre-gap length 0:00:03.00
Peak level 100.0 %
Extraction speed 4.3 X
Track quality 99.9 %
Test CRC 2E9D83AF
Copy CRC 2E9D83AF
Track not present in AccurateRip database
Copy OK
Track 5
Filename C:\MY RIPS\05 - 05 - The Howl.wav
Pre-gap length 0:00:03.00
Peak level 100.0 %
Extraction speed 5.2 X
Track quality 100.0 %
Test CRC 6F8DFECA
Copy CRC 6F8DFECA
Track not present in AccurateRip database
Copy OK
Track 6
Filename C:\MY RIPS\06 - 06 - Invisible Kingdom.wav
Pre-gap length 0:00:03.00
Peak level 100.0 %
Extraction speed 5.4 X
Track quality 100.0 %
Test CRC 8D345E4F
Copy CRC 8D345E4F
Track not present in AccurateRip database
Copy OK
Track 7
Filename C:\MY RIPS\07 - 07 - Eschatology.wav
Pre-gap length 0:00:03.00
Peak level 100.0 %
Extraction speed 5.7 X
Track quality 100.0 %
Test CRC 2D08D725
Copy CRC 2D08D725
Track not present in AccurateRip database
Copy OK
Track 8
Filename C:\MY RIPS\08 - 08 - Human Body.wav
Pre-gap length 0:00:03.00
Peak level 100.0 %
Extraction speed 5.7 X
Track quality 100.0 %
Test CRC 80EFAA10
Copy CRC 80EFAA10
Track not present in AccurateRip database
Copy OK
None of the tracks are present in the AccurateRip database
No errors occurred
End of status report
==== Log checksum 3ED3022B754ADD2142A3EEB60A83EF03618A8FAF77EA42394053861888C2175D ====
 
Содержание индексной карты (.CUE)
REM DISCID 520E7B08
REM COMMENT "ExactAudioCopy v1.0b1"
PERFORMER "Adam Caine Trio"
TITLE "Thousandfold"
FILE "01 - 01 - Outer Church.wav" WAVE
TRACK 01 AUDIO
TITLE "01 - Outer Church"
PERFORMER "Adam Caine Trio"
FLAGS DCP
PREGAP 00:01:00
INDEX 01 00:00:00
TRACK 02 AUDIO
TITLE "02 - Ride the Tiger"
PERFORMER "Adam Caine Trio"
FLAGS DCP
INDEX 00 08:20:32
FILE "02 - 02 - Ride the Tiger.wav" WAVE
INDEX 01 00:00:00
TRACK 03 AUDIO
TITLE "03 - Castros"
PERFORMER "Adam Caine Trio"
FLAGS DCP
INDEX 00 05:31:14
FILE "03 - 03 - Castros.wav" WAVE
INDEX 01 00:00:00
TRACK 04 AUDIO
TITLE "04 - Thousandfold"
PERFORMER "Adam Caine Trio"
FLAGS DCP
INDEX 00 08:51:12
FILE "04 - 04 - Thousandfold.wav" WAVE
INDEX 01 00:00:00
TRACK 05 AUDIO
TITLE "05 - The Howl"
PERFORMER "Adam Caine Trio"
FLAGS DCP
INDEX 00 10:32:18
FILE "05 - 05 - The Howl.wav" WAVE
INDEX 01 00:00:00
TRACK 06 AUDIO
TITLE "06 - Invisible Kingdom"
PERFORMER "Adam Caine Trio"
FLAGS DCP
INDEX 00 08:29:13
FILE "06 - 06 - Invisible Kingdom.wav" WAVE
INDEX 01 00:00:00
TRACK 07 AUDIO
TITLE "07 - Eschatology"
PERFORMER "Adam Caine Trio"
FLAGS DCP
INDEX 00 06:48:52
FILE "07 - 07 - Eschatology.wav" WAVE
INDEX 01 00:00:00
TRACK 08 AUDIO
TITLE "08 - Human Body"
PERFORMER "Adam Caine Trio"
FLAGS DCP
INDEX 00 07:46:10
FILE "08 - 08 - Human Body.wav" WAVE
INDEX 01 00:00:00
 
auCDtect Task Manager
-----------------------
DON'T MODIFY THIS FILE
-----------------------
PERFORMER: auCDtect Task Manager, ver. 1.5.1RC6 build 1.5.1.7
Copyright (c) 2008-2010 y-soft. All rights reserved
http://y-soft.org
ANALYZER: auCDtect: CD records authenticity detector, version 0.8.2
Copyright (c) 2004 Oleg Berngardt. All rights reserved.
Copyright (c) 2004 Alexander Djourik. All rights reserved.
FILE: 08 - 08 - Human Body.flac
Size: 30304344 Hash: 221871F79FF51F1223F6AF9CE2CEE50E Accuracy: -m0
Conclusion: CDDA 100%
Signature: CBD22DABB6B92A38E37D80C7D15F73E2A514D437
FILE: 07 - 07 - Eschatology.flac
Size: 48194528 Hash: E2EB3514F83928A0EE8C4DCB1F5225CD Accuracy: -m0
Conclusion: CDDA 100%
Signature: 8EA04D3A5D8CAE62C914D3079B5F5ACE2BDDDDF0
FILE: 06 - 06 - Invisible Kingdom.flac
Size: 30936851 Hash: D8CFCF118A5180BFFA584BC6C0F97E95 Accuracy: -m0
Conclusion: CDDA 100%
Signature: 6E7AD9B564706A251A5192AF219BFC6380481598
FILE: 05 - 05 - The Howl.flac
Size: 46575522 Hash: 1CD87B398273125215DF3EECC4A5B95B Accuracy: -m0
Conclusion: CDDA 100%
Signature: B54F521E60E96F64F664D4A835941BC75D27A0D5
FILE: 04 - 04 - Thousandfold.flac
Size: 63746745 Hash: 56AD7E2007B8C6DB0152B553892527BF Accuracy: -m0
Conclusion: CDDA 100%
Signature: A83E300EFB7DEA2AF14FFEB9BAC8F58EE856A754
FILE: 03 - 03 - Castros.flac
Size: 50757876 Hash: BCF7149E0826304ACAAF2FE4E89D25CE Accuracy: -m0
Conclusion: CDDA 100%
Signature: 7D2B8996CA8771CDE88C1B58E81E8405A796E880
FILE: 02 - 02 - Ride the Tiger.flac
Size: 38054274 Hash: 587CDB159F4CB8AE3F8C21CBFC5C816E Accuracy: -m0
Conclusion: CDDA 100%
Signature: E6ED7C98385E6A64649DDCA1149876C746E830FE
FILE: 01 - 01 - Outer Church.flac
Size: 50261193 Hash: 34ADA555762C4CEB3B87D8DC730374C6 Accuracy: -m0
Conclusion: CDDA 100%
Signature: D351C09BDD4103AB51C8B2C6215FC5363E09E414
По всем вопросам пишите личное сообщение пользователю M0p94ok.
23:55
179
Нет комментариев. Ваш будет первым!