Вы используете незарегистрированную версию компонента "Вкладки"!

Поиск

(Avant-Garde Jazz) [CD] Werner Hasler, Gilbert Paeffgen, Karl Berger - Hasler, Paeffgen, Berger - 2011 [NoBusiness Records NBCD 33], FLAC (tracks+.cue), lossless

(Avant-Garde Jazz) [CD] Werner Hasler, Gilbert Paeffgen, Karl Berger - Hasler, Paeffgen, Berger - 2011 [NoBusiness Records NBCD 33], FLAC (tracks+.cue), lossless
Треклист:
Werner Hasler, Gilbert Paeffgen, Karl Berger - Hasler | Paeffgen | Berger
Жанр: Avant-Garde Jazz
Носитель: CD
Страна-производитель диска: Lithuania
Год издания: 2011
Издатель (лейбл): NoBusiness Records
Номер по каталогу: NBCD 33
Аудиокодек: FLAC (*.flac)
Тип рипа: tracks+.cue
Битрейт аудио: lossless
Продолжительность: 00:40:52
Источник (релизер): nnm, Джаз Клуб, 27 февраля, 2014 / спасибо mishka1981
Наличие сканов в содержимом раздачи: да
Треклист:
1. Holtondimi (07:06)
2. Lomallet (07:04)
3. Metro DimDim (02:27)
4. CAbH (05:55)
5. Notes (07:47)
6. Augdimaug (04:02)
7. Spiralthing (02:38)
8. Wuammas (04:11)
All music composed and produced by Gilbert Paeffgen and Werner Hasler
Доп. информация:
Musicians:
WERNER HASLER - trumpet /electronics
KARL BERGER - vibraphone
GILBERT PAEFFGEN - drums
All tracks recorded 14th December, 2010 at Mobiles Tonstudio and mixed by Peter Pfister exept tracks 3, 6 and 8 recorded 4th November, 2010 at Influx - Studio Bern by Dave Muther, mixed at Hörsaal by Werner Hasler
© 2011, NoBusiness Records
WERNER HASLER, KARL BERGER, GILBERT PAEFFGEN - Hasler | Paeffgen | Berger nobusinessrecords.com
WERNER HASLER Official Site
WERNER HASLER from Wikipedia, the free encyclopedia
KARL BERGER Official Site
KARL BERGER from Wikipedia, the free encyclopedia
 
... back ...
 
... photo ...
 
... review ...
The electrified acoustic trio combines several worlds. Stories are told here in the jazz idiom: starting from a basic groove is stressed about this and also improvises with nesting and rhythmic themes. The compositions are mainly played on scales from division of the octave harmonic structures and parallelisms, scales, supposedly inspired by such contrasting worlds as well as the oriental Maqamwelt of natural horns in the Alps region.
The trio moves also because of the natural inclusion of electronica outside "world music" sound is ethnocentric and exoticism of the young new century - in which bits and bytes a supporting role-play required. The clash of purely electronic and acoustic sounds of the trio receives a new topicality and urgency.
~ nobusinessrecords.com
 
Лог создания рипа
Exact Audio Copy V1.0 beta 1 from 15. November 2010
EAC extraction logfile from 27. February 2014, 0:00
Hasler / Paeffgen / Berger / Hasler / Paeffgen / Berger
Used drive : Optiarc DVD RW AD-7710H Adapter: 1 ID: 0
Read mode : Secure
Utilize accurate stream : Yes
Defeat audio cache : Yes
Make use of C2 pointers : No
Read offset correction : 48
Overread into Lead-In and Lead-Out : No
Fill up missing offset samples with silence : Yes
Delete leading and trailing silent blocks : No
Null samples used in CRC calculations : Yes
Used interface : Native Win32 interface for Win NT & 2000
Gap handling : Appended to previous track
Used output format : User Defined Encoder
Selected bitrate : 896 kBit/s
Quality : High
Add ID3 tag : No
Command line compressor : C:\Program Files\Exact Audio Copy\FLAC\FLAC.EXE
Additional command line options : -8 -V -T "ARTIST=%a" -T "TITLE=%t" -T "ALBUM=%g" -T "DATE=%y" -T "TRACKNUMBER=%n" -T "GENRE=%m" -T "COMMENT=%e" %j--picture="%i"%j %s -o %d
TOC of the extracted CD
Track | Start | Length | Start sector | End sector
---------------------------------------------------------
1 | 0:00.00 | 7:06.35 | 0 | 31984
2 | 7:06.35 | 7:04.15 | 31985 | 63799
3 | 14:10.50 | 2:27.46 | 63800 | 74870
4 | 16:38.21 | 5:55.35 | 74871 | 101530
5 | 22:33.56 | 7:47.17 | 101531 | 136572
6 | 30:20.73 | 4:02.18 | 136573 | 154740
7 | 34:23.16 | 2:38.09 | 154741 | 166599
8 | 37:01.25 | 4:11.61 | 166600 | 185485
Track 1
Filename C:\MY RIPS\01 - Holtondimi.wav
Pre-gap length 0:00:02.00
Peak level 99.1 %
Extraction speed 3.0 X
Track quality 100.0 %
Test CRC 48062793
Copy CRC 48062793
Track not present in AccurateRip database
Copy OK
Track 2
Filename C:\MY RIPS\02 - Lomallet.wav
Pre-gap length 0:00:03.00
Peak level 89.3 %
Extraction speed 3.6 X
Track quality 100.0 %
Test CRC AA35CD5C
Copy CRC AA35CD5C
Track not present in AccurateRip database
Copy OK
Track 3
Filename C:\MY RIPS\03 - Metro DimDim.wav
Pre-gap length 0:00:03.00
Peak level 92.5 %
Extraction speed 3.3 X
Track quality 100.0 %
Test CRC 9B86E773
Copy CRC 9B86E773
Track not present in AccurateRip database
Copy OK
Track 4
Filename C:\MY RIPS\04 - CAbH.wav
Pre-gap length 0:00:03.00
Peak level 98.1 %
Extraction speed 4.1 X
Track quality 100.0 %
Test CRC AFF9C1FE
Copy CRC AFF9C1FE
Track not present in AccurateRip database
Copy OK
Track 5
Filename C:\MY RIPS\05 - Notes.wav
Pre-gap length 0:00:03.00
Peak level 99.4 %
Extraction speed 4.1 X
Track quality 99.9 %
Test CRC 945577CB
Copy CRC 945577CB
Track not present in AccurateRip database
Copy OK
Track 6
Filename C:\MY RIPS\06 - Augdimaug.wav
Pre-gap length 0:00:03.00
Peak level 98.8 %
Extraction speed 4.6 X
Track quality 100.0 %
Test CRC 9175AC13
Copy CRC 9175AC13
Track not present in AccurateRip database
Copy OK
Track 7
Filename C:\MY RIPS\07 - Spiralthing.wav
Pre-gap length 0:00:03.00
Peak level 99.9 %
Extraction speed 4.4 X
Track quality 100.0 %
Test CRC 72F291D3
Copy CRC 72F291D3
Track not present in AccurateRip database
Copy OK
Track 8
Filename C:\MY RIPS\08 - Wuammas.wav
Pre-gap length 0:00:03.00
Peak level 92.4 %
Extraction speed 4.9 X
Track quality 100.0 %
Test CRC E4FF0DCF
Copy CRC E4FF0DCF
Track not present in AccurateRip database
Copy OK
None of the tracks are present in the AccurateRip database
No errors occurred
End of status report
==== Log checksum D9AC8D26B9373C97B29208E9F96C0966BE0F4F5EBAE9E2EBF6318D9DE39A25A5 ====
 
Содержание индексной карты (.CUE)
REM GENRE Jazz
REM DATE 2010
REM DISCID 5109A908
REM COMMENT "ExactAudioCopy v1.0b1"
PERFORMER "Hasler / Paeffgen / Berger"
TITLE "Hasler / Paeffgen / Berger"
FILE "01 - Holtondimi.wav" WAVE
TRACK 01 AUDIO
TITLE "Holtondimi"
PERFORMER "Hasler / Paeffgen / Berger"
INDEX 01 00:00:00
TRACK 02 AUDIO
TITLE "Lomallet"
PERFORMER "Hasler / Paeffgen / Berger"
INDEX 00 07:03:35
FILE "02 - Lomallet.wav" WAVE
INDEX 01 00:00:00
TRACK 03 AUDIO
TITLE "Metro DimDim"
PERFORMER "Hasler / Paeffgen / Berger"
INDEX 00 07:01:15
FILE "03 - Metro DimDim.wav" WAVE
INDEX 01 00:00:00
TRACK 04 AUDIO
TITLE "CAbH"
PERFORMER "Hasler / Paeffgen / Berger"
INDEX 00 02:24:46
FILE "04 - CAbH.wav" WAVE
INDEX 01 00:00:00
TRACK 05 AUDIO
TITLE "Notes"
PERFORMER "Hasler / Paeffgen / Berger"
INDEX 00 05:52:35
FILE "05 - Notes.wav" WAVE
INDEX 01 00:00:00
TRACK 06 AUDIO
TITLE "Augdimaug"
PERFORMER "Hasler / Paeffgen / Berger"
INDEX 00 07:44:17
FILE "06 - Augdimaug.wav" WAVE
INDEX 01 00:00:00
TRACK 07 AUDIO
TITLE "Spiralthing"
PERFORMER "Hasler / Paeffgen / Berger"
INDEX 00 03:59:18
FILE "07 - Spiralthing.wav" WAVE
INDEX 01 00:00:00
TRACK 08 AUDIO
TITLE "Wuammas"
PERFORMER "Hasler / Paeffgen / Berger"
INDEX 00 02:35:09
FILE "08 - Wuammas.wav" WAVE
INDEX 01 00:00:00
 
auCDtect Task Manager
-----------------------
DON'T MODIFY THIS FILE
-----------------------
PERFORMER: auCDtect Task Manager, ver. 1.5.1RC6 build 1.5.1.7
Copyright (c) 2008-2010 y-soft. All rights reserved
http://y-soft.org
ANALYZER: auCDtect: CD records authenticity detector, version 0.8.2
Copyright (c) 2004 Oleg Berngardt. All rights reserved.
Copyright (c) 2004 Alexander Djourik. All rights reserved.
FILE: 08 - Wuammas.flac
Size: 19138535 Hash: 6294427693778205CE7F5FDE014FBB39 Accuracy: -m0
Conclusion: CDDA 99%
Signature: EB131970574378A318E74B871D11C6EF4850A6E1
FILE: 07 - Spiralthing.flac
Size: 9441928 Hash: AAFA0A11001AB935EA715FB1E214B485 Accuracy: -m0
Conclusion: CDDA 100%
Signature: 674BADBEE7C2A061987BE0D156CB63A649392779
FILE: 06 - Augdimaug.flac
Size: 14699567 Hash: B6733BE37C5F314C62620C536972D0F3 Accuracy: -m0
Conclusion: CDDA 100%
Signature: F986A2E01A85F6E20995ABDA900752C5E91269D3
FILE: 05 - Notes.flac
Size: 32642870 Hash: A20B2BB5F90E9A18801CEAE356DA6724 Accuracy: -m0
Conclusion: CDDA 100%
Signature: 74E3CFB74E10FEC2C4779CF9D40A7024D63AEEDC
FILE: 04 - CAbH.flac
Size: 14249035 Hash: 12E10155EF66BF43CA5159C4E7C1ACB8 Accuracy: -m0
Conclusion: CDDA 100%
Signature: 1C707C0807981375C3B0E8C6D82499C2A2EE7B06
FILE: 03 - Metro DimDim.flac
Size: 8520432 Hash: 2D71A3704AA373DB910AB8D36B5518A1 Accuracy: -m0
Conclusion: CDDA 100%
Signature: AFF865AEDE0487C8D3A12B3942308172C76F5320
FILE: 02 - Lomallet.flac
Size: 38049013 Hash: 8DF88D1053E3567586A180151B3D4AA2 Accuracy: -m0
Conclusion: CDDA 100%
Signature: A2E13CE65B7CA397ADDACB8C221357C0E0DE3C8D
FILE: 01 - Holtondimi.flac
Size: 35452860 Hash: 975FE3AD1A6081B04984F0E2817D57BE Accuracy: -m0
Conclusion: CDDA 100%
Signature: D60F769FDBB9931CF7D42EC85CB8A7DAEF296F42
Any questions -> support@pro-jazz.com. По всем вопросам пишите -> support@pro-jazz.com
23:55
188
Нет комментариев. Ваш будет первым!