Вы используете незарегистрированную версию компонента "Вкладки"!

Поиск

(Free Jazz) Paul Giallorenzo's GitGo (Jeb Bishop, Mars Williams, Anton Hatwich, Marc Riordan) - Emergent - 2012, FLAC (image+.cue), lossless

(Free Jazz) Paul Giallorenzo's GitGo (Jeb Bishop, Mars Williams, Anton Hatwich, Marc Riordan) - Emergent - 2012, FLAC (image+.cue), lossless
Треклист:
Paul Giallorenzo's GitGo / Emergent
Жанр: Free Jazz
Страна-производитель диска: UK
Год издания: 2012
Издатель (лейбл): Leo Records
Номер по каталогу: CD LR 641
Аудиокодек: FLAC (*.flac)
Тип рипа: image+.cue
Битрейт аудио: lossless
Продолжительность: 53:16
Источник (релизер): cd
Наличие сканов в содержимом раздачи: нет
Треклист:
1. On Your Marks 6:05
2. Want It 6:25
3. Slowed Roll 5:05
4. Spatialist (For Fred Anderson) 10:41
5. Obelaskism 8:25
6. Imprograf 8:30
7. The Swinger 3:22
8. Spring Chicken 4:43
 
Лог создания рипа
Exact Audio Copy V1.0 beta 2 from 29. April 2011
EAC extraction logfile from 18. September 2013, 12:11
Paul Giallorenzo's GitGo / Emergent
Used drive : Optiarc DVD RW AD-7170A Adapter: 0 ID: 0
Read mode : Secure
Utilize accurate stream : Yes
Defeat audio cache : Yes
Make use of C2 pointers : No
Read offset correction : 48
Overread into Lead-In and Lead-Out : No
Fill up missing offset samples with silence : Yes
Delete leading and trailing silent blocks : No
Null samples used in CRC calculations : Yes
Used interface : Native Win32 interface for Win NT & 2000
Used output format : User Defined Encoder
Selected bitrate : 320 kBit/s
Quality : High
Add ID3 tag : No
Command line compressor : C:\Program Files\Exact Audio Copy\Flac\flac.exe
Additional command line options : -V -8 -T "Date=%year%" -T "Genre=%genre%" %source%
TOC of the extracted CD
Track | Start | Length | Start sector | End sector
---------------------------------------------------------
1 | 0:00.00 | 6:05.32 | 0 | 27406
2 | 6:05.32 | 6:25.33 | 27407 | 56314
3 | 12:30.65 | 5:04.46 | 56315 | 79160
4 | 17:35.36 | 10:40.61 | 79161 | 127221
5 | 28:16.22 | 8:25.04 | 127222 | 165100
6 | 36:41.26 | 8:30.18 | 165101 | 203368
7 | 45:11.44 | 3:21.61 | 203369 | 218504
8 | 48:33.30 | 4:43.17 | 218505 | 239746
Range status and errors
Selected range
Filename K:\ЕАС\Paul Giallorenzo's GitGo - Emergent.wav
Peak level 100.0 %
Extraction speed 2.0 X
Range quality 100.0 %
Test CRC A2FE0463
Copy CRC A2FE0463
Copy OK
No errors occurred
AccurateRip summary
Track 1 not present in database
Track 2 not present in database
Track 3 not present in database
Track 4 not present in database
Track 5 not present in database
Track 6 not present in database
Track 7 not present in database
Track 8 not present in database
None of the tracks are present in the AccurateRip database
End of status report
==== Log checksum BDD184B4DD220F000CAFAD6747C14F58D5EAA8730D50C4C12BE0545CAD02990B ====
 
Содержание индексной карты (.CUE)
REM GENRE Jazz
REM DATE 2012
REM DISCID 6A0C7C08
REM COMMENT "ExactAudioCopy v1.0b2"
PERFORMER "Paul Giallorenzo's GitGo"
TITLE "Emergent"
FILE "Paul Giallorenzo's GitGo - Emergent.flac" WAVE
TRACK 01 AUDIO
TITLE "On your Marks"
PERFORMER "Paul Giallorenzo's GitGo"
ISRC 000000000000
FLAGS DCP
INDEX 01 00:00:00
TRACK 02 AUDIO
TITLE "Want It"
PERFORMER "Paul Giallorenzo's GitGo"
ISRC 000000000000
FLAGS DCP
INDEX 00 06:03:32
INDEX 01 06:05:32
TRACK 03 AUDIO
TITLE "Slowed Roll"
PERFORMER "Paul Giallorenzo's GitGo"
ISRC 000000000000
FLAGS DCP
INDEX 00 12:28:65
INDEX 01 12:30:65
TRACK 04 AUDIO
TITLE "Spatialist (for Fred Anderson)"
PERFORMER "Paul Giallorenzo's GitGo"
ISRC 000000000000
INDEX 00 17:33:36
INDEX 01 17:35:36
TRACK 05 AUDIO
TITLE "Obelaskism"
PERFORMER "Paul Giallorenzo's GitGo"
ISRC 000000000000
FLAGS DCP
INDEX 00 28:14:22
INDEX 01 28:16:22
TRACK 06 AUDIO
TITLE "Imprograf"
PERFORMER "Paul Giallorenzo's GitGo"
ISRC 000000000000
FLAGS DCP
INDEX 00 36:39:26
INDEX 01 36:41:26
TRACK 07 AUDIO
TITLE "The Swinger"
PERFORMER "Paul Giallorenzo's GitGo"
ISRC 000000000000
FLAGS DCP
INDEX 00 45:09:44
INDEX 01 45:11:44
TRACK 08 AUDIO
TITLE "Spring Chicken"
PERFORMER "Paul Giallorenzo's GitGo"
ISRC 000000000000
FLAGS DCP
INDEX 00 48:30:30
INDEX 01 48:33:30
 
Состав
Paul Giallorenzo-piano
Jeb Bishop-trombone
Mars Williams-saxophones
Anton Hatwich-bass
Marc Riordan-drums
Any questions -> support@pro-jazz.com. По всем вопросам пишите -> support@pro-jazz.com
18:31
168
Нет комментариев. Ваш будет первым!