Вы используете незарегистрированную версию компонента "Вкладки"!

Поиск

(Free Jazz, Modern Creative, Sound Aspects) New Winds (Robert Dick, J. D. Parran, Ned Rothenberg) - The Cliff - 1989, FLAC (tracks+.cue), lossless

(Free Jazz, Modern Creative, Sound Aspects) New Winds (Robert Dick, J. D. Parran, Ned Rothenberg) - The Cliff - 1989, FLAC (tracks+.cue), lossless
Треклист:
New Winds / The Cliff
Жанр: Free Jazz, Modern Creative, Sound Aspects
Страна-производитель диска: Germany
Год издания: 1989
Издатель (лейбл): Sound Aspects
Номер по каталогу: SAS 025-1
Аудиокодек: FLAC (*.flac)
Тип рипа: tracks+.cue
Битрейт аудио: lossless
Продолжительность: 50:02
Источник (релизер): Max Monteiro
Наличие сканов в содержимом раздачи: да
Треклист:
1. The Cliff (New Winds) 8:35
2. Beauty Is a Rare Thing (Ornette Coleman) 4:32
3. Seeing the Double (Robert Dick) 10:22
4. Categorical Imperatives (Ned Rothenberg) 6:14
5. Business (Ned Rothenberg) 3:44
6. Chroma (New Winds) 4:12
7. Mood Indigo (Duke Ellington) 4:04
8. Subjump (J. D. Parran) 8:19
Recorded September 19 & 20, 1986 at Radio City Studios, NYC.
« Subjump » recorded November 21, 1988 at Park Place Studio, Brooklyn, N.Y.
Ned Rothenberg – Alto Saxophone, Bass Clarinet, Flute, Ocarina
J. D. Parran – A Clarinet, Eb Soprano Clarinet, Eb Alto Clarinet, Eb Contra-Alto Clarinet, Soprano Saxophone, Flute, Bamboo Flute
Robert Dick – Flute, Bass Flute, Ab Piccolo, C Piccolo
 
Лог создания рипа
Exact Audio Copy V1.0 beta 3 from 29. August 2011
EAC extraction logfile from 15. September 2013, 14:01
New Winds / The Cliff
Used drive : SlimtypeeNAU508 5 Adapter: 1 ID: 0
Read mode : Secure
Utilize accurate stream : Yes
Defeat audio cache : Yes
Make use of C2 pointers : No
Read offset correction : 6
Overread into Lead-In and Lead-Out : No
Fill up missing offset samples with silence : Yes
Delete leading and trailing silent blocks : No
Null samples used in CRC calculations : Yes
Used interface : Native Win32 interface for Win NT & 2000
Gap handling : Appended to previous track
Used output format : User Defined Encoder
Selected bitrate : 768 kBit/s
Quality : High
Add ID3 tag : No
Command line compressor : C:\Program Files (x86)\Exact Audio Copy\Flac\flac.exe
Additional command line options : -8 -V -T "ARTIST=%artist%" -T "TITLE=%title%" -T "ALBUM=%albumtitle%" -T "DATE=%year%" -T "TRACKNUMBER=%tracknr%" -T "GENRE=%genre%" -T "PERFORMER=%albuminterpret%" -T "COMPOSER=%composer%" %haslyrics%--tag-from-file=LYRICS="%lyricsfile%"%haslyrics% -T "ALBUMARTIST=%albumartist%" -T "DISCNUMBER=%cdnumber%" -T "TOTALDISCS=%totalcds%" -T "TOTALTRACKS=%numtracks%" -T "COMMENT=%comment%" %source% -o %dest%
TOC of the extracted CD
Track | Start | Length | Start sector | End sector
---------------------------------------------------------
1 | 0:00.32 | 8:35.25 | 32 | 38681
2 | 8:35.57 | 4:32.25 | 38682 | 59106
3 | 13:08.07 | 10:21.50 | 59107 | 105731
4 | 23:29.57 | 6:14.00 | 105732 | 133781
5 | 29:43.57 | 3:44.00 | 133782 | 150581
6 | 33:27.57 | 4:12.00 | 150582 | 169481
7 | 37:39.57 | 4:04.00 | 169482 | 187781
8 | 41:43.57 | 8:18.50 | 187782 | 225181
Track 1
Filename C:\EAC rips\01 - The Cliff.wav
Pre-gap length 0:00:02.32
Peak level 89.1 %
Extraction speed 1.2 X
Track quality 100.0 %
Test CRC DD1A3255
Copy CRC DD1A3255
Accurately ripped (confidence 1) [ADA39B7F] (AR v2)
Copy OK
Track 2
Filename C:\EAC rips\02 - Beauty Is a Rare Thing.wav
Pre-gap length 0:00:03.62
Peak level 86.7 %
Extraction speed 1.3 X
Track quality 100.0 %
Test CRC 6AF52687
Copy CRC 6AF52687
Accurately ripped (confidence 1) [47EA56E1] (AR v2)
Copy OK
Track 3
Filename C:\EAC rips\03 - Seeing the Double.wav
Pre-gap length 0:00:03.25
Peak level 85.0 %
Extraction speed 1.6 X
Track quality 100.0 %
Test CRC 5BAF8E24
Copy CRC 5BAF8E24
Accurately ripped (confidence 1) [06DC69E2] (AR v2)
Copy OK
Track 4
Filename C:\EAC rips\04 - Categorical Imperatives.wav
Pre-gap length 0:00:03.12
Peak level 93.7 %
Extraction speed 1.7 X
Track quality 100.0 %
Test CRC 71684CD1
Copy CRC 71684CD1
Accurately ripped (confidence 1) [BC6B1602] (AR v2)
Copy OK
Track 5
Filename C:\EAC rips\05 - Business.wav
Pre-gap length 0:00:03.25
Peak level 89.1 %
Extraction speed 1.7 X
Track quality 100.0 %
Test CRC F49BAB81
Copy CRC F49BAB81
Accurately ripped (confidence 1) [A6485FBA] (AR v2)
Copy OK
Track 6
Filename C:\EAC rips\06 - Chroma.wav
Pre-gap length 0:00:04.00
Peak level 93.3 %
Extraction speed 1.6 X
Track quality 99.9 %
Test CRC 8B78F3C1
Copy CRC 8B78F3C1
Accurately ripped (confidence 1) [371CBD72] (AR v2)
Copy OK
Track 7
Filename C:\EAC rips\07 - Mood Indigo.wav
Pre-gap length 0:00:04.00
Peak level 80.0 %
Extraction speed 1.7 X
Track quality 99.9 %
Test CRC 5BE5D3EC
Copy CRC 5BE5D3EC
Accurately ripped (confidence 1) [E953C070] (AR v2)
Copy OK
Track 8
Filename C:\EAC rips\08 - Subjump.wav
Pre-gap length 0:00:03.12
Peak level 93.3 %
Extraction speed 2.0 X
Track quality 99.9 %
Test CRC 0F058B85
Copy CRC 0F058B85
Accurately ripped (confidence 1) [138F5D9D] (AR v2)
Copy OK
All tracks accurately ripped
No errors occurred
End of status report
---- CUETools DB Plugin V2.1.4
[CTDB TOCID: UI7v0EAbjWZV0WkiIGwqm0Hp_lI-] disk not present in database
Submit result: UI7v0EAbjWZV0WkiIGwqm0Hp_lI- has been uploaded
==== Log checksum 7C7CBCB3D565917F1EBBDDF63A041E55C052C1205903F130FA20DB86A42447E3 ====
 
Содержание индексной карты (.CUE)
REM GENRE Jazz
REM DATE 1989
REM DISCID 5D0BBA08
REM COMMENT "ExactAudioCopy v1.0b3"
PERFORMER "New Winds"
TITLE "The Cliff"
FILE "01 - The Cliff.wav" WAVE
TRACK 01 AUDIO
TITLE "The Cliff"
PERFORMER "New Winds"
PREGAP 00:00:32
INDEX 01 00:00:00
TRACK 02 AUDIO
TITLE "Beauty Is a Rare Thing"
PERFORMER "New Winds"
INDEX 00 08:31:38
FILE "02 - Beauty Is a Rare Thing.wav" WAVE
INDEX 01 00:00:00
TRACK 03 AUDIO
TITLE "Seeing the Double"
PERFORMER "New Winds"
INDEX 00 04:29:00
FILE "03 - Seeing the Double.wav" WAVE
INDEX 01 00:00:00
TRACK 04 AUDIO
TITLE "Categorical Imperatives"
PERFORMER "New Winds"
INDEX 00 10:18:38
FILE "04 - Categorical Imperatives.wav" WAVE
INDEX 01 00:00:00
TRACK 05 AUDIO
TITLE "Business"
PERFORMER "New Winds"
INDEX 00 06:10:50
FILE "05 - Business.wav" WAVE
INDEX 01 00:00:00
TRACK 06 AUDIO
TITLE "Chroma"
PERFORMER "New Winds"
INDEX 00 03:40:00
FILE "06 - Chroma.wav" WAVE
INDEX 01 00:00:00
TRACK 07 AUDIO
TITLE "Mood Indigo"
PERFORMER "New Winds"
INDEX 00 04:08:00
FILE "07 - Mood Indigo.wav" WAVE
INDEX 01 00:00:00
TRACK 08 AUDIO
TITLE "Subjump"
PERFORMER "New Winds"
INDEX 00 04:00:63
FILE "08 - Subjump.wav" WAVE
INDEX 01 00:00:00
Any questions -> support@pro-jazz.com. По всем вопросам пишите -> support@pro-jazz.com
18:32
147
Нет комментариев. Ваш будет первым!