Вы используете незарегистрированную версию компонента "Вкладки"!

Поиск

(Free Improvisation) Robert Dick & Thomas Buckner - Flutes & Voices - 2010, FLAC (tracks+.cue), lossless

(Free Improvisation) Robert Dick & Thomas Buckner - Flutes & Voices - 2010, FLAC (tracks+.cue), lossless
Треклист:
Robert Dick & Thomas Buckner / Flutes & Voices
Жанр: Free Improvisation
Страна-производитель диска: US
Год издания: 2010
Издатель (лейбл): Mutable music
Номер по каталогу: 17541-2
Страна: US
Аудиокодек: FLAC (*.flac)
Тип рипа: tracks+.cue
Битрейт аудио: lossless
Продолжительность: 47:18
Источник (релизер): Собственный рип
Наличие сканов в содержимом раздачи: нет
Треклист:
1. In The Land Of Perfect day
Flute [Bass Flute In F] – Robert Dick
2. Bones Of The Tongue
Flute [Bass Flute In C] – Robert Dick
3. Broadcasted Alive
Flute [With Glissando Headjoint®] – Robert Dick
4. Certain Gravities
Piccolo Flute – Robert Dick
5. We Are The Walrus
Flute [Bass Flute In F] – Robert Dick
6. The Bird On The Scene Says Yes
Flute [With Glissando Headjoint®] – Robert Dick
7. Takeout Karma
Flute [Bass Flute In C] – Robert Dick
8. Makemake
Piccolo Flute – Robert Dick
 
Лог создания рипа
Exact Audio Copy V1.0 beta 3 from 29. August 2011
Отчёт EAC об извлечении, выполненном 26. сентября 2013, 23:30
Robert Dick & Thomas Buckner / Flutes & voices
Дисковод: _NEC CD-RW NR-9300A Adapter: 1 ID: 1
Режим чтения : Достоверность
Использование точного потока : Да
Отключение кэша аудио : Да
Использование указателей C2 : Нет
Коррекция смещения при чтении : 685
Способность читать области Lead-in и Lead-out : Нет
Заполнение пропущенных сэмплов тишиной : Да
Удаление блоков с тишиной в начале и конце : Нет
При вычислениях CRC использовались нулевые сэмплы : Да
Интерфейс : Встроенный Win32-интерфейс для Win NT/2000
Обработка зазоров : Добавлено к предыдущему треку
Выходной формат : Пользовательский кодировщик
Выбранный битрейт : 128 kBit/s
Качество : Высокий
Добавление ID3-тега : Нет
Утилита сжатия : C:\Program Files\Exact Audio Copy\Flac\flac.exe
Дополнительные параметры : -V -8 -T "Genre=%genre%" -T "Artist=%artist%" -T "Title=%title%" -T "Album=%albumtitle%" -T "Date=%year%" -T "Tracknumber=%tracknr%" -T "Comment=%comment%" %source%
TOC извлечённого CD
Трек | Старт | Длительность | Начальный сектор | Конечный сектор
---------------------------------------------------------------------
1 | 0:00.00 | 6:09.18 | 0 | 27692
2 | 6:09.18 | 7:03.37 | 27693 | 59454
3 | 13:12.55 | 9:17.56 | 59455 | 101285
4 | 22:30.36 | 7:38.34 | 101286 | 135669
5 | 30:08.70 | 4:02.25 | 135670 | 153844
6 | 34:11.20 | 4:22.62 | 153845 | 173556
7 | 38:34.07 | 3:47.34 | 173557 | 190615
8 | 42:21.41 | 4:56.37 | 190616 | 212852
Трек 1
Имя файла C:\Documents and Settings\Администратор\Рабочий стол\Robert Dick & Thomas Buckner - Flutes & Voices (2010)\01. In the land of perfect days.wav
Длина предзазора 0:00:02.00
Пиковый уровень 96.6 %
Скорость извлечения 4.6 X
Качество трека 100.0 %
CRC теста 37BE03E8
CRC копии 37BE03E8
Трек не обнаружен в базе AccurateRip
Копирование... OK
Трек 2
Имя файла C:\Documents and Settings\Администратор\Рабочий стол\Robert Dick & Thomas Buckner - Flutes & Voices (2010)\02. Bones of the tongue.wav
Пиковый уровень 96.6 %
Скорость извлечения 4.6 X
Качество трека 99.9 %
CRC теста 1F11B9CB
CRC копии 1F11B9CB
Трек не обнаружен в базе AccurateRip
Копирование... OK
Трек 3
Имя файла C:\Documents and Settings\Администратор\Рабочий стол\Robert Dick & Thomas Buckner - Flutes & Voices (2010)\03. Broadcasted alive.wav
Пиковый уровень 96.6 %
Скорость извлечения 5.6 X
Качество трека 99.9 %
CRC теста 3E74361B
CRC копии 3E74361B
Трек не обнаружен в базе AccurateRip
Копирование... OK
Трек 4
Имя файла C:\Documents and Settings\Администратор\Рабочий стол\Robert Dick & Thomas Buckner - Flutes & Voices (2010)\04. Certain gravities.wav
Пиковый уровень 96.6 %
Скорость извлечения 7.0 X
Качество трека 100.0 %
CRC теста E3270592
CRC копии E3270592
Трек не обнаружен в базе AccurateRip
Копирование... OK
Трек 5
Имя файла C:\Documents and Settings\Администратор\Рабочий стол\Robert Dick & Thomas Buckner - Flutes & Voices (2010)\05. We are the walrus.wav
Пиковый уровень 96.6 %
Скорость извлечения 6.1 X
Качество трека 99.9 %
CRC теста 15169D58
CRC копии 15169D58
Трек не обнаружен в базе AccurateRip
Копирование... OK
Трек 6
Имя файла C:\Documents and Settings\Администратор\Рабочий стол\Robert Dick & Thomas Buckner - Flutes & Voices (2010)\06. The bird on the scene says yes.wav
Пиковый уровень 96.6 %
Скорость извлечения 7.2 X
Качество трека 100.0 %
CRC теста 2F9A5D6A
CRC копии 2F9A5D6A
Трек не обнаружен в базе AccurateRip
Копирование... OK
Трек 7
Имя файла C:\Documents and Settings\Администратор\Рабочий стол\Robert Dick & Thomas Buckner - Flutes & Voices (2010)\07. Takeout karma.wav
Пиковый уровень 85.2 %
Скорость извлечения 7.4 X
Качество трека 100.0 %
CRC теста 7A3633A9
CRC копии 7A3633A9
Трек не обнаружен в базе AccurateRip
Копирование... OK
Трек 8
Имя файла C:\Documents and Settings\Администратор\Рабочий стол\Robert Dick & Thomas Buckner - Flutes & Voices (2010)\08. Makemake.wav
Пиковый уровень 92.2 %
Скорость извлечения 7.1 X
Качество трека 99.9 %
CRC теста 4DC07AA3
CRC копии 4DC07AA3
Трек не обнаружен в базе AccurateRip
Копирование... OK
Ни одного трека нет в базе AccurateRip
Ошибок не произошло
Конец отчёта
==== Контрольная сумма отчёта 3EA77829F3815C7F8C05CF8122D3566223143CFF6555FAA78F918A74B0A86656 ====
 
Содержание индексной карты (.CUE)
REM GENRE "Free improvisation"
REM DATE 2010
REM DISCID 5A0B1608
REM COMMENT "ExactAudioCopy v1.0b3"
PERFORMER "Robert Dick & Thomas Buckner"
TITLE "Flutes & voices"
FILE "01. In the land of perfect days.wav" WAVE
TRACK 01 AUDIO
TITLE "In the land of perfect days"
PERFORMER "Robert Dick & Thomas Buckner"
FLAGS DCP
INDEX 01 00:00:00
FILE "02. Bones of the tongue.wav" WAVE
TRACK 02 AUDIO
TITLE "Bones of the tongue"
PERFORMER "Robert Dick & Thomas Buckner"
FLAGS DCP
INDEX 01 00:00:00
FILE "03. Broadcasted alive.wav" WAVE
TRACK 03 AUDIO
TITLE "Broadcasted alive"
PERFORMER "Robert Dick & Thomas Buckner"
FLAGS DCP
INDEX 01 00:00:00
FILE "04. Certain gravities.wav" WAVE
TRACK 04 AUDIO
TITLE "Certain gravities"
PERFORMER "Robert Dick & Thomas Buckner"
FLAGS DCP
INDEX 01 00:00:00
FILE "05. We are the walrus.wav" WAVE
TRACK 05 AUDIO
TITLE "We are the walrus"
PERFORMER "Robert Dick & Thomas Buckner"
FLAGS DCP
INDEX 01 00:00:00
FILE "06. The bird on the scene says yes.wav" WAVE
TRACK 06 AUDIO
TITLE "The bird on the scene says yes"
PERFORMER "Robert Dick & Thomas Buckner"
FLAGS DCP
INDEX 01 00:00:00
FILE "07. Takeout karma.wav" WAVE
TRACK 07 AUDIO
TITLE "Takeout karma"
PERFORMER "Robert Dick & Thomas Buckner"
FLAGS DCP
INDEX 01 00:00:00
FILE "08. Makemake.wav" WAVE
TRACK 08 AUDIO
TITLE "Makemake"
PERFORMER "Robert Dick & Thomas Buckner"
FLAGS DCP
INDEX 01 00:00:00
 
Об альбоме (сборнике)
Flutes & Voices is utterly brilliant improvisation, finding two longtime musicians in top form. Thomas Buckner and Robert Dick have somewhat parallel musical histories. For well over three decades, both Buckner and Dick have redefined what is acoustically possible on their instruments. Both have a profound interest in the development of a highly individual sound language and in free improvisation. Their activities have helped shape the downtown scene in New York, and affected the course of new music worldwide. About four years ago, they began to very occasionally meet to start and continue a musical dialog. In June, 2009, they recorded together. The CD Flutes and Voices, a collection of dynamic improvisations, is the result.
 
Состав
Robert Dick, flutes
Thomas Buckner, voice
Any questions -> support@pro-jazz.com. По всем вопросам пишите -> support@pro-jazz.com
18:32
175
Нет комментариев. Ваш будет первым!