Вы используете незарегистрированную версию компонента "Вкладки"!

Поиск

(Avant-Garde, Contemporary Jazz, Unit Records) Yves Reichmuth, Lucien Dubuis, Jonas Tauber, Lionel Friedli - Fractal - 2006, FLAC (tracks+.cue), lossless

(Avant-Garde, Contemporary Jazz, Unit Records) Yves Reichmuth, Lucien Dubuis, Jonas Tauber, Lionel Friedli - Fractal - 2006, FLAC (tracks+.cue), lossless
Треклист:
Yves Reichmuth, Lucien Dubuis, Jonas Tauber, Lionel Friedli / Fractal
Жанр: Avant-Garde, Contemporary Jazz, Unit Records
Страна-производитель диска: Switzerland
Год издания: 2006
Издатель (лейбл): Unit Records
Номер по каталогу: UTR 4181
Аудиокодек: FLAC (*.flac)
Тип рипа: tracks+.cue
Битрейт аудио: lossless
Продолжительность: 46:48
Источник (релизер): Max Monteiro
Наличие сканов в содержимом раздачи: да
Треклист:
01. Tourette Shoes 4:35
02. Cargo Cult 7:10
03. Geschwungen 5:10
04. Fractal 4:29
05. Kein Zusatz 6:06
06. Diesel 3:12
07. Clue 5:49
08. Waldistrasse 1:51
09. Point Blank 4:23
10. Gutanis 4:03
All compositions by Yves Reichmuth.
Recorded on October 3rd & 4th, 2005 at Artefax Studios, Lausanne (Switzerland).
Yves Reichmuth – Electric Guitar
Lucien Dubuis – Bass Clarinet, Contrabass Clarinet
Jonas Tauber – Bass
Lionel Friedli – Drums
 
Лог создания рипа
Exact Audio Copy V1.0 beta 3 from 29. August 2011
EAC extraction logfile from 27. September 2013, 13:40
Yves Reichmuth, Lucien Dubuis, Jonas Tauber, Lionel Friedli / Fractal
Used drive : SlimtypeeNAU508 5 Adapter: 1 ID: 0
Read mode : Secure
Utilize accurate stream : Yes
Defeat audio cache : Yes
Make use of C2 pointers : No
Read offset correction : 6
Overread into Lead-In and Lead-Out : No
Fill up missing offset samples with silence : Yes
Delete leading and trailing silent blocks : No
Null samples used in CRC calculations : Yes
Used interface : Native Win32 interface for Win NT & 2000
Gap handling : Appended to previous track
Used output format : User Defined Encoder
Selected bitrate : 768 kBit/s
Quality : High
Add ID3 tag : No
Command line compressor : C:\Program Files (x86)\Exact Audio Copy\Flac\flac.exe
Additional command line options : -8 -V -T "ARTIST=%artist%" -T "TITLE=%title%" -T "ALBUM=%albumtitle%" -T "DATE=%year%" -T "TRACKNUMBER=%tracknr%" -T "GENRE=%genre%" -T "PERFORMER=%albuminterpret%" -T "COMPOSER=%composer%" %haslyrics%--tag-from-file=LYRICS="%lyricsfile%"%haslyrics% -T "ALBUMARTIST=%albumartist%" -T "DISCNUMBER=%cdnumber%" -T "TOTALDISCS=%totalcds%" -T "TOTALTRACKS=%numtracks%" -T "COMMENT=%comment%" %source% -o %dest%
TOC of the extracted CD
Track | Start | Length | Start sector | End sector
---------------------------------------------------------
1 | 0:00.00 | 4:35.01 | 0 | 20625
2 | 4:35.01 | 7:10.06 | 20626 | 52881
3 | 11:45.07 | 5:09.52 | 52882 | 76108
4 | 16:54.59 | 4:29.10 | 76109 | 96293
5 | 21:23.69 | 6:05.58 | 96294 | 123726
6 | 27:29.52 | 3:11.70 | 123727 | 138121
7 | 30:41.47 | 5:49.08 | 138122 | 164304
8 | 36:30.55 | 1:51.10 | 164305 | 172639
9 | 38:21.65 | 4:23.06 | 172640 | 192370
10 | 42:44.71 | 4:02.61 | 192371 | 210581
Track 1
Filename C:\EAC rips\01 - Tourette Shoes.wav
Pre-gap length 0:00:02.00
Peak level 97.8 %
Extraction speed 1.1 X
Track quality 100.0 %
Test CRC 50AE1C51
Copy CRC 50AE1C51
Track not present in AccurateRip database
Copy OK
Track 2
Filename C:\EAC rips\02 - Cargo Cult.wav
Pre-gap length 0:00:00.70
Peak level 97.6 %
Extraction speed 1.3 X
Track quality 100.0 %
Test CRC 0CED9C95
Copy CRC 0CED9C95
Track not present in AccurateRip database
Copy OK
Track 3
Filename C:\EAC rips\03 - Geschwungen.wav
Peak level 97.5 %
Extraction speed 1.4 X
Track quality 100.0 %
Test CRC 211A841D
Copy CRC 211A841D
Track not present in AccurateRip database
Copy OK
Track 4
Filename C:\EAC rips\04 - Fractal.wav
Pre-gap length 0:00:01.68
Peak level 97.6 %
Extraction speed 1.5 X
Track quality 100.0 %
Test CRC 6D8B1143
Copy CRC 6D8B1143
Track not present in AccurateRip database
Copy OK
Track 5
Filename C:\EAC rips\05 - Kein Zusatz.wav
Pre-gap length 0:00:01.55
Peak level 97.5 %
Extraction speed 1.7 X
Track quality 100.0 %
Test CRC 8D3E87B4
Copy CRC 8D3E87B4
Track not present in AccurateRip database
Copy OK
Track 6
Filename C:\EAC rips\06 - Diesel.wav
Pre-gap length 0:00:02.05
Peak level 95.8 %
Extraction speed 1.6 X
Track quality 100.0 %
Test CRC AFD908C3
Copy CRC AFD908C3
Track not present in AccurateRip database
Copy OK
Track 7
Filename C:\EAC rips\07 - Clue.wav
Pre-gap length 0:00:01.11
Peak level 97.6 %
Extraction speed 1.8 X
Track quality 100.0 %
Test CRC 9B9C285B
Copy CRC 9B9C285B
Track not present in AccurateRip database
Copy OK
Track 8
Filename C:\EAC rips\08 - Waldistrasse.wav
Pre-gap length 0:00:04.30
Peak level 91.3 %
Extraction speed 1.6 X
Track quality 100.0 %
Test CRC BB6E0F6F
Copy CRC BB6E0F6F
Track not present in AccurateRip database
Copy OK
Track 9
Filename C:\EAC rips\09 - Point Blank.wav
Pre-gap length 0:00:02.71
Peak level 97.6 %
Extraction speed 1.9 X
Track quality 100.0 %
Test CRC CF87E5D6
Copy CRC CF87E5D6
Track not present in AccurateRip database
Copy OK
Track 10
Filename C:\EAC rips\10 - Gutanis.wav
Pre-gap length 0:00:02.01
Peak level 97.6 %
Extraction speed 1.9 X
Track quality 100.0 %
Test CRC B2E0F328
Copy CRC B2E0F328
Track not present in AccurateRip database
Copy OK
None of the tracks are present in the AccurateRip database
No errors occurred
End of status report
---- CUETools DB Plugin V2.1.4
[CTDB TOCID: 4arpPJdBem6UMCAIC2gA6V3VEf0-] disk not present in database
Submit result: 4arpPJdBem6UMCAIC2gA6V3VEf0- has been uploaded
==== Log checksum 04A530B5820D981A7B242EE767232177DAFF1E3FE65C7245E3E646B435DEEC38 ====
 
Содержание индексной карты (.CUE)
REM GENRE Jazz
REM DATE 2006
REM DISCID 7E0AF70A
REM COMMENT "ExactAudioCopy v1.0b3"
CATALOG 7640114791819
PERFORMER "Yves Reichmuth, Lucien Dubuis, Jonas Tauber, Lionel Friedli"
TITLE "Fractal"
FILE "01 - Tourette Shoes.wav" WAVE
TRACK 01 AUDIO
TITLE "Tourette Shoes"
PERFORMER "Yves Reichmuth, Lucien Dubuis, Jonas Tauber, Lionel Friedli"
ISRC CH2170648101
FLAGS DCP
INDEX 01 00:00:00
TRACK 02 AUDIO
TITLE "Cargo Cult"
PERFORMER "Yves Reichmuth, Lucien Dubuis, Jonas Tauber, Lionel Friedli"
ISRC CH2170648102
FLAGS DCP
INDEX 00 04:34:06
FILE "02 - Cargo Cult.wav" WAVE
INDEX 01 00:00:00
FILE "03 - Geschwungen.wav" WAVE
TRACK 03 AUDIO
TITLE "Geschwungen"
PERFORMER "Yves Reichmuth, Lucien Dubuis, Jonas Tauber, Lionel Friedli"
ISRC CH2170648103
FLAGS DCP
INDEX 01 00:00:00
TRACK 04 AUDIO
TITLE "Fractal"
PERFORMER "Yves Reichmuth, Lucien Dubuis, Jonas Tauber, Lionel Friedli"
ISRC CH2170648104
FLAGS DCP
INDEX 00 05:07:59
FILE "04 - Fractal.wav" WAVE
INDEX 01 00:00:00
TRACK 05 AUDIO
TITLE "Kein Zusatz"
PERFORMER "Yves Reichmuth, Lucien Dubuis, Jonas Tauber, Lionel Friedli"
ISRC CH2170648105
FLAGS DCP
INDEX 00 04:27:30
FILE "05 - Kein Zusatz.wav" WAVE
INDEX 01 00:00:00
TRACK 06 AUDIO
TITLE "Diesel"
PERFORMER "Yves Reichmuth, Lucien Dubuis, Jonas Tauber, Lionel Friedli"
ISRC CH2170648106
FLAGS DCP
INDEX 00 06:03:53
FILE "06 - Diesel.wav" WAVE
INDEX 01 00:00:00
TRACK 07 AUDIO
TITLE "Clue"
PERFORMER "Yves Reichmuth, Lucien Dubuis, Jonas Tauber, Lionel Friedli"
ISRC CH2170648107
FLAGS DCP
INDEX 00 03:10:59
FILE "07 - Clue.wav" WAVE
INDEX 01 00:00:00
TRACK 08 AUDIO
TITLE "Waldistrasse"
PERFORMER "Yves Reichmuth, Lucien Dubuis, Jonas Tauber, Lionel Friedli"
ISRC CH2170648108
FLAGS DCP
INDEX 00 05:44:53
FILE "08 - Waldistrasse.wav" WAVE
INDEX 01 00:00:00
TRACK 09 AUDIO
TITLE "Point Blank"
PERFORMER "Yves Reichmuth, Lucien Dubuis, Jonas Tauber, Lionel Friedli"
ISRC CH2170648109
FLAGS DCP
INDEX 00 01:48:14
FILE "09 - Point Blank.wav" WAVE
INDEX 01 00:00:00
TRACK 10 AUDIO
TITLE "Gutanis"
PERFORMER "Yves Reichmuth, Lucien Dubuis, Jonas Tauber, Lionel Friedli"
ISRC CH2170648110
FLAGS DCP
INDEX 00 04:21:05
FILE "10 - Gutanis.wav" WAVE
INDEX 01 00:00:00
Any questions -> support@pro-jazz.com. По всем вопросам пишите -> support@pro-jazz.com
18:33
117
Нет комментариев. Ваш будет первым!