Вы используете незарегистрированную версию компонента "Вкладки"!

Поиск

(Avant-Garde Jazz, Free Improvisation) Dave Ballou, Nick Didkovsky, Kevin Norton - Zinc Nine Psychedelic - 2009, FLAC (tracks+.cue), lossless

(Avant-Garde Jazz, Free Improvisation) Dave Ballou, Nick Didkovsky, Kevin Norton - Zinc Nine Psychedelic - 2009, FLAC (tracks+.cue), lossless
Треклист:
Dave Ballou, Nick Didkovsky, Kevin Norton / Zinc Nine Psychedelic
Жанр: Avant-Garde Jazz, Free Improvisation
Страна-производитель диска: US
Год издания: 2009
Издатель (лейбл): Punos Music CD-R
Номер по каталогу: PM0008
Страна: US
Аудиокодек: FLAC (*.flac)
Тип рипа: tracks+.cue
Битрейт аудио: lossless
Продолжительность: 62:07
Источник (релизер): свой фирменный диск
Наличие сканов в содержимом раздачи:
Треклист:
[1] Kaleidoscopic (8:18)
[2] Diffraction (3:23)
[3] Cortex (7:22)
[4] Seeing Stars (9:04)
[5] Electricity (6:17)
[6] Focus (5:10)
[7] Zap (1:41)
[8] Transformed (9:52)
[9] Woodcut (5:37)
[10] Sleep (5:17)
 
Лог создания рипа
Exact Audio Copy V1.0 beta 3 from 29. August 2011
EAC extraction logfile from 26. September 2013, 21:10
Dave Ballou, Nick Didkovsky, Kevin Norton / Zinc Nine Psychedelic
Used drive : PIONEER DVD-RW DVR-115D Adapter: 0 ID: 0
Read mode : Secure
Utilize accurate stream : Yes
Defeat audio cache : Yes
Make use of C2 pointers : No
Read offset correction : 48
Overread into Lead-In and Lead-Out : No
Fill up missing offset samples with silence : Yes
Delete leading and trailing silent blocks : No
Null samples used in CRC calculations : Yes
Used interface : Installed external ASPI interface
Gap handling : Appended to previous track
Used output format : User Defined Encoder
Selected bitrate : 896 kBit/s
Quality : High
Add ID3 tag : No
Command line compressor : C:\Program Files\Exact Audio Copy\FLAC\FLAC.EXE
Additional command line options : -6 -V -T "ARTIST=%artist%" -T "TITLE=%title%" -T "ALBUM=%albumtitle%" -T "DATE=%year%" -T "TRACKNUMBER=%tracknr%" -T "GENRE=%genre%" -T "COMMENT=%comment%" -T "BAND=%albuminterpret%" -T "COMPOSER=%composer%" %haslyrics%--tag-from-file=LYRICS="%lyricsfile%"%haslyrics% -T "DISCNUMBER=%cdnumber%" -T "TOTALDISCS=%totalcds%" -T "TOTALTRACKS=%numtracks%" %hascover%--picture="%coverfile%"%hascover% %source% -o %dest%
TOC of the extracted CD
Track | Start | Length | Start sector | End sector
---------------------------------------------------------
1 | 0:00.00 | 8:18.47 | 0 | 37396
2 | 8:18.47 | 3:23.11 | 37397 | 52632
3 | 11:41.58 | 7:23.08 | 52633 | 85865
4 | 19:04.66 | 9:04.64 | 85866 | 126729
5 | 28:09.55 | 6:17.50 | 126730 | 155054
6 | 34:27.30 | 5:10.65 | 155055 | 178369
7 | 39:38.20 | 1:41.30 | 178370 | 185974
8 | 41:19.50 | 9:52.64 | 185975 | 230438
9 | 51:12.39 | 5:37.31 | 230439 | 255744
10 | 56:49.70 | 5:17.10 | 255745 | 279529
Track 1
Filename D:\zzz\01 - Kaleidoscopic.wav
Pre-gap length 0:00:02.00
Peak level 73.6 %
Extraction speed 4.8 X
Track quality 99.9 %
Test CRC 6406F79A
Copy CRC 6406F79A
Track not present in AccurateRip database
Copy OK
Track 2
Filename D:\zzz\02 - Diffraction.wav
Peak level 90.3 %
Extraction speed 4.5 X
Track quality 99.9 %
Test CRC 075E63E8
Copy CRC 075E63E8
Track not present in AccurateRip database
Copy OK
Track 3
Filename D:\zzz\03 - Cortex.wav
Peak level 55.3 %
Extraction speed 6.1 X
Track quality 100.0 %
Test CRC DEA874D5
Copy CRC DEA874D5
Track not present in AccurateRip database
Copy OK
Track 4
Filename D:\zzz\04 - Seeing Stars.wav
Peak level 39.5 %
Extraction speed 6.8 X
Track quality 100.0 %
Test CRC 1389A679
Copy CRC 1389A679
Track not present in AccurateRip database
Copy OK
Track 5
Filename D:\zzz\05 - Electricity.wav
Peak level 44.5 %
Extraction speed 7.1 X
Track quality 100.0 %
Test CRC 5C48508E
Copy CRC 5C48508E
Track not present in AccurateRip database
Copy OK
Track 6
Filename D:\zzz\06 - Focus.wav
Peak level 100.0 %
Extraction speed 7.2 X
Track quality 100.0 %
Test CRC 43D82146
Copy CRC 43D82146
Track not present in AccurateRip database
Copy OK
Track 7
Filename D:\zzz\07 - Zap.wav
Peak level 100.0 %
Extraction speed 6.1 X
Track quality 100.0 %
Test CRC 5447B02D
Copy CRC 5447B02D
Track not present in AccurateRip database
Copy OK
Track 8
Filename D:\zzz\08 - Transformed.wav
Pre-gap length 0:00:00.01
Peak level 51.0 %
Extraction speed 8.1 X
Track quality 100.0 %
Test CRC CF44927B
Copy CRC CF44927B
Track not present in AccurateRip database
Copy OK
Track 9
Filename D:\zzz\09 - Woodcut.wav
Peak level 78.8 %
Extraction speed 8.1 X
Track quality 100.0 %
Test CRC 6C723F73
Copy CRC 6C723F73
Track not present in AccurateRip database
Copy OK
Track 10
Filename D:\zzz\10 - Sleep.wav
Peak level 100.0 %
Extraction speed 8.4 X
Track quality 100.0 %
Test CRC 5ABF7741
Copy CRC 5ABF7741
Track not present in AccurateRip database
Copy OK
None of the tracks are present in the AccurateRip database
No errors occurred
End of status report
==== Log checksum BE89FB63E75BBF0E65571B8B71AC53E6F36E17A84E5EA71C5F1F65469AF1830A ====
 
Содержание индексной карты (.CUE)
REM GENRE "Free Improvisation"
REM DATE 2009
REM DISCID 720E8F0A
REM COMMENT "ExactAudioCopy v1.0b3"
PERFORMER "Dave Ballou, Nick Didkovsky, Kevin Norton"
TITLE "Zinc Nine Psychedelic"
FILE "01 - Kaleidoscopic.wav" WAVE
TRACK 01 AUDIO
TITLE "Kaleidoscopic"
PERFORMER "Dave Ballou, Nick Didkovsky, Kevin Norton"
INDEX 01 00:00:00
FILE "02 - Diffraction.wav" WAVE
TRACK 02 AUDIO
TITLE "Diffraction"
PERFORMER "Dave Ballou, Nick Didkovsky, Kevin Norton"
INDEX 01 00:00:00
FILE "03 - Cortex.wav" WAVE
TRACK 03 AUDIO
TITLE "Cortex"
PERFORMER "Dave Ballou, Nick Didkovsky, Kevin Norton"
INDEX 01 00:00:00
FILE "04 - Seeing Stars.wav" WAVE
TRACK 04 AUDIO
TITLE "Seeing Stars"
PERFORMER "Dave Ballou, Nick Didkovsky, Kevin Norton"
INDEX 01 00:00:00
FILE "05 - Electricity.wav" WAVE
TRACK 05 AUDIO
TITLE "Electricity"
PERFORMER "Dave Ballou, Nick Didkovsky, Kevin Norton"
INDEX 01 00:00:00
FILE "06 - Focus.wav" WAVE
TRACK 06 AUDIO
TITLE "Focus"
PERFORMER "Dave Ballou, Nick Didkovsky, Kevin Norton"
INDEX 01 00:00:00
FILE "07 - Zap.wav" WAVE
TRACK 07 AUDIO
TITLE "Zap"
PERFORMER "Dave Ballou, Nick Didkovsky, Kevin Norton"
INDEX 01 00:00:00
TRACK 08 AUDIO
TITLE "Transformed"
PERFORMER "Dave Ballou, Nick Didkovsky, Kevin Norton"
INDEX 00 01:41:29
FILE "08 - Transformed.wav" WAVE
INDEX 01 00:00:00
FILE "09 - Woodcut.wav" WAVE
TRACK 09 AUDIO
TITLE "Woodcut"
PERFORMER "Dave Ballou, Nick Didkovsky, Kevin Norton"
INDEX 01 00:00:00
FILE "10 - Sleep.wav" WAVE
TRACK 10 AUDIO
TITLE "Sleep"
PERFORMER "Dave Ballou, Nick Didkovsky, Kevin Norton"
INDEX 01 00:00:00
 
Лог проверки качества
d:\>d:\aucdtect -d/-m0 d:\zzz\*.wav
auCDtect: CD records authenticity detector, version 0.8.2
Copyright (c) 2004 Oleg Berngardt. All rights reserved.
Copyright (c) 2004 Alexander Djourik. All rights reserved.
------------------------------------------------------------
Processing file: [01. Kaleidoscopic.wav]
------------------------------------------------------------
This track looks like CDDA with probability 99%
------------------------------------------------------------
Processing file: [02. Diffraction.wav]
------------------------------------------------------------
This track looks like CDDA with probability 100%
------------------------------------------------------------
Processing file: [03. Cortex.wav]
------------------------------------------------------------
This track looks like CDDA with probability 58%
------------------------------------------------------------
Processing file: [04. Seeing Stars.wav]
------------------------------------------------------------
This track looks like CDDA with probability 87%
------------------------------------------------------------
Processing file: [05. Electricity.wav]
------------------------------------------------------------
This track looks like CDDA with probability 94%
------------------------------------------------------------
Processing file: [06. Focus.wav]
------------------------------------------------------------
This track looks like CDDA with probability 100%
------------------------------------------------------------
Processing file: [07. Zap.wav]
------------------------------------------------------------
This track looks like CDDA with probability 100%
------------------------------------------------------------
Processing file: [08. Transformed.wav]
------------------------------------------------------------
This track looks like CDDA with probability 100%
------------------------------------------------------------
Processing file: [09. Woodcut.wav]
------------------------------------------------------------
This track looks like CDDA with probability 100%
------------------------------------------------------------
Processing file: [10. Sleep.wav]
------------------------------------------------------------
This track looks like CDDA with probability 100%
------------------------------------------------------------
Final Conclusion:
------------------------------------------------------------
These tracks looks like CDDA with probability 100%
Доп. информация:
 
Press Release & Review
On November 5, 2006 Zinc Nine Psychedelic performed at Jimmy's #43 in New York City. Instead of playing two sets as originally intended, they started early, skipped sound check, and just kept going... performing almost three hours without interruption. The evening's extraordinary performance was recorded with meticulous care by Scott Friedlander, and edited down to just over an hour by Nick Didkovsky at Punos Music Studios. The result is this, their debut CD entitled "Zinc Nine Psychedelic".
Zinc Nine Psychedelic is something else. "Kaleidoscopic" sounds like a dream as it floats in with eerie electronic trumpet, streams of softs notes tapped on the guitar and insistent jazzy cymbal work. Nick eventually wails pulling off a nifty, slow-burning guitar solo. Kevin's drum solo at the beginning of "Diffraction" is crafty and propulsive, while Dave's solo on "Cortex" is slightly twisted with haunting bowed cymbals and floating electronic sounds. Many of the pieces flow into the next with certain sounds being transformed as they evolve. Nick mentions in the liner notes that this music should be played loud, yet things often occur on a more subtle level. I dig the restrained yet spiraling acoustic vibes solo on "Seeing Stars" which leads to a dreamy free floating guitar near the end. Nick plays some delicate Frith-like guitar (by tapping on the strings with an object) at the start of "Electricity", with a layer fractured trumpet and suspense-filled bowed cymbals. Each piece unfolds organically like a story being told with different scenery or dialogue occurring as the sounds shift into another gear. Things erupt on "Focus" with some more intense moments warping into view. Sometimes improvised music is magic that can't really be explained but you know when it happening. This is that magic music.
- Bruce Lee Gallanter, Downtown Music Gallery
 
Состав
Dave Ballou - trumpet, electronics
Nick Didkovsky - guitar, table top guitar, and homebrew software
Kevin Norton - drums, percussion
По всем вопросам пишите личное сообщение пользователю M0p94ok.
18:34
120
Нет комментариев. Ваш будет первым!