Вы используете незарегистрированную версию компонента "Вкладки"!

Поиск

(Contemporary Jazz, ACT Music) Jens Thomas / Christof Lauer - Pure Joy - 2003, FLAC (tracks+.cue), lossless

(Contemporary Jazz, ACT Music) Jens Thomas / Christof Lauer - Pure Joy - 2003, FLAC (tracks+.cue), lossless
Издатель (лейбл):
Треклист:
Jens Thomas / Christof Lauer – Pure Joy
Жанр: Contemporary Jazz, ACT Music
Страна-производитель диска: Germany
Год издания: 2003
Издатель (лейбл): ACT Music
Номер по каталогу: ACT 9415-2
Аудиокодек: FLAC (*.flac)
Тип рипа: tracks+.cue
Битрейт аудио: lossless
Продолжительность: 52:11
Источник (релизер): Max Monteiro
Наличие сканов в содержимом раздачи: нет
Треклист:
01. Pure Joy (Jens Thomas) 5:39
02. Green Dance (Jens Thomas) 3:20
03. Elements (Jens Thomas) 3:32
04. Missing the Rainbow (Christof Lauer) 4:50
05. XTC-Blue (Jens Thomas) 4:29
06. Golden Lake (Jens Thomas) 2:41
07. Into the Black (Jens Thomas / Christof Lauer) 2:00
08. Velvet Horizon (Christof Lauer) 2:13
09. The Yellow Circle (Jens Thomas) 6:48
10. Be Yourself (Jens Thomas) 3:42
11. Rodeo (Christof Lauer) 3:15
12. My Shy Silver (Jens Thomas) 6:04
13. Pure Purple (Christof Lauer) 3:38
Recorded at Bauer Studio Ludwigsburg, Germany.
Jens Thomas – Piano
Christof Lauer – Tenor & Soprano Saxophones
 
Лог создания рипа
Exact Audio Copy V1.0 beta 3 from 29. August 2011
EAC extraction logfile from 18. September 2013, 22:22
Jens Thomas / Christof Lauer / Pure Joy
Used drive : SlimtypeeNAU508 5 Adapter: 1 ID: 0
Read mode : Secure
Utilize accurate stream : Yes
Defeat audio cache : Yes
Make use of C2 pointers : No
Read offset correction : 6
Overread into Lead-In and Lead-Out : No
Fill up missing offset samples with silence : Yes
Delete leading and trailing silent blocks : No
Null samples used in CRC calculations : Yes
Used interface : Native Win32 interface for Win NT & 2000
Gap handling : Appended to previous track
Used output format : User Defined Encoder
Selected bitrate : 768 kBit/s
Quality : High
Add ID3 tag : No
Command line compressor : C:\Program Files (x86)\Exact Audio Copy\Flac\flac.exe
Additional command line options : -8 -V -T "ARTIST=%artist%" -T "TITLE=%title%" -T "ALBUM=%albumtitle%" -T "DATE=%year%" -T "TRACKNUMBER=%tracknr%" -T "GENRE=%genre%" -T "PERFORMER=%albuminterpret%" -T "COMPOSER=%composer%" %haslyrics%--tag-from-file=LYRICS="%lyricsfile%"%haslyrics% -T "ALBUMARTIST=%albumartist%" -T "DISCNUMBER=%cdnumber%" -T "TOTALDISCS=%totalcds%" -T "TOTALTRACKS=%numtracks%" -T "COMMENT=%comment%" %source% -o %dest%
TOC of the extracted CD
Track | Start | Length | Start sector | End sector
---------------------------------------------------------
1 | 0:00.00 | 5:39.17 | 0 | 25441
2 | 5:39.17 | 3:19.70 | 25442 | 40436
3 | 8:59.12 | 3:31.60 | 40437 | 56321
4 | 12:30.72 | 4:49.55 | 56322 | 78051
5 | 17:20.52 | 4:28.40 | 78052 | 98191
6 | 21:49.17 | 2:41.30 | 98192 | 110296
7 | 24:30.47 | 2:00.18 | 110297 | 119314
8 | 26:30.65 | 2:12.55 | 119315 | 129269
9 | 28:43.45 | 6:48.05 | 129270 | 159874
10 | 35:31.50 | 3:41.67 | 159875 | 176516
11 | 39:13.42 | 3:15.08 | 176517 | 191149
12 | 42:28.50 | 6:04.30 | 191150 | 218479
13 | 48:33.05 | 3:37.52 | 218480 | 234806
Track 1
Filename C:\EAC rips\01 - Pure Joy.wav
Pre-gap length 0:00:02.00
Peak level 99.2 %
Extraction speed 2.2 X
Track quality 100.0 %
Test CRC 4069DDB4
Copy CRC 4069DDB4
Accurately ripped (confidence 4) [AFA8AC68] (AR v2)
Copy OK
Track 2
Filename C:\EAC rips\02 - Green Dance.wav
Pre-gap length 0:00:01.32
Peak level 66.1 %
Extraction speed 2.3 X
Track quality 100.0 %
Test CRC D1E23284
Copy CRC D1E23284
Accurately ripped (confidence 3) [9A2F13ED] (AR v2)
Copy OK
Track 3
Filename C:\EAC rips\03 - Elements.wav
Peak level 100.0 %
Extraction speed 2.0 X
Track quality 99.9 %
Test CRC 7502D684
Copy CRC 7502D684
Accurately ripped (confidence 4) [69A65E33] (AR v2)
Copy OK
Track 4
Filename C:\EAC rips\04 - Missing the Rainbow.wav
Peak level 100.0 %
Extraction speed 2.8 X
Track quality 100.0 %
Test CRC ECDCE961
Copy CRC ECDCE961
Accurately ripped (confidence 4) [82646896] (AR v2)
Copy OK
Track 5
Filename C:\EAC rips\05 - XTC-Blue.wav
Peak level 100.0 %
Extraction speed 3.0 X
Track quality 100.0 %
Test CRC 37EBFCD9
Copy CRC 37EBFCD9
Accurately ripped (confidence 3) [2D752D07] (AR v2)
Copy OK
Track 6
Filename C:\EAC rips\06 - Golden Lake.wav
Peak level 100.0 %
Extraction speed 2.9 X
Track quality 100.0 %
Test CRC 4C94D31B
Copy CRC 4C94D31B
Accurately ripped (confidence 4) [6A0790D3] (AR v2)
Copy OK
Track 7
Filename C:\EAC rips\07 - Into the Black.wav
Pre-gap length 0:00:03.05
Peak level 100.0 %
Extraction speed 2.8 X
Track quality 100.0 %
Test CRC B9412ED2
Copy CRC B9412ED2
Accurately ripped (confidence 4) [84A67599] (AR v2)
Copy OK
Track 8
Filename C:\EAC rips\08 - Velvet Horizon.wav
Pre-gap length 0:00:02.58
Peak level 100.0 %
Extraction speed 3.0 X
Track quality 100.0 %
Test CRC 829A6DB2
Copy CRC 829A6DB2
Accurately ripped (confidence 4) [2C0C177A] (AR v2)
Copy OK
Track 9
Filename C:\EAC rips\09 - The Yellow Circle.wav
Peak level 100.0 %
Extraction speed 3.6 X
Track quality 100.0 %
Test CRC AC4FDD75
Copy CRC AC4FDD75
Accurately ripped (confidence 3) [F71B62D4] (AR v2)
Copy OK
Track 10
Filename C:\EAC rips\10 - Be Yourself.wav
Pre-gap length 0:00:02.60
Peak level 100.0 %
Extraction speed 3.6 X
Track quality 100.0 %
Test CRC 2121C093
Copy CRC 2121C093
Accurately ripped (confidence 4) [59953FE3] (AR v2)
Copy OK
Track 11
Filename C:\EAC rips\11 - Rodeo.wav
Pre-gap length 0:00:02.62
Peak level 99.9 %
Extraction speed 3.6 X
Track quality 100.0 %
Test CRC 608B7D19
Copy CRC 608B7D19
Accurately ripped (confidence 3) [C8076A67] (AR v2)
Copy OK
Track 12
Filename C:\EAC rips\12 - My Shy Silver.wav
Pre-gap length 0:00:02.58
Peak level 92.0 %
Extraction speed 4.1 X
Track quality 100.0 %
Test CRC 49808637
Copy CRC 49808637
Accurately ripped (confidence 3) [6B84D389] (AR v2)
Copy OK
Track 13
Filename C:\EAC rips\13 - Pure Purple.wav
Pre-gap length 0:00:02.60
Peak level 100.0 %
Extraction speed 3.9 X
Track quality 100.0 %
Test CRC E370D339
Copy CRC E370D339
Accurately ripped (confidence 3) [A63E8DD4] (AR v2)
Copy OK
All tracks accurately ripped
No errors occurred
End of status report
---- CUETools DB Plugin V2.1.4
[CTDB TOCID: wOWUB5wIBtKirtV0.pAy64sd0Jg-] found
Submit result: wOWUB5wIBtKirtV0.pAy64sd0Jg- has been confirmed
Track | CTDB Status
1 | (2/2) Accurately ripped
2 | (2/2) Accurately ripped
3 | (2/2) Accurately ripped
4 | (2/2) Accurately ripped
5 | (2/2) Accurately ripped
6 | (2/2) Accurately ripped
7 | (2/2) Accurately ripped
8 | (2/2) Accurately ripped
9 | (2/2) Accurately ripped
10 | (2/2) Accurately ripped
11 | (2/2) Accurately ripped
12 | (2/2) Accurately ripped
13 | (2/2) Accurately ripped
==== Log checksum FA35BDAEE8AEBC6A092B4D085DDDBCF4784DF14C2BB616D36017F85B88027019 ====
 
Содержание индексной карты (.CUE)
REM GENRE Jazz
REM DATE 2003
REM DISCID 920C3A0D
REM COMMENT "ExactAudioCopy v1.0b3"
PERFORMER "Jens Thomas / Christof Lauer"
TITLE "Pure Joy"
FILE "01 - Pure Joy.wav" WAVE
TRACK 01 AUDIO
TITLE "Pure Joy"
PERFORMER "Jens Thomas / Christof Lauer"
ISRC DEA890300071
INDEX 01 00:00:00
TRACK 02 AUDIO
TITLE "Green Dance"
PERFORMER "Jens Thomas / Christof Lauer"
ISRC DEA890300072
INDEX 00 05:37:60
FILE "02 - Green Dance.wav" WAVE
INDEX 01 00:00:00
FILE "03 - Elements.wav" WAVE
TRACK 03 AUDIO
TITLE "Elements"
PERFORMER "Jens Thomas / Christof Lauer"
ISRC DEA890300073
INDEX 01 00:00:00
FILE "04 - Missing the Rainbow.wav" WAVE
TRACK 04 AUDIO
TITLE "Missing the Rainbow"
PERFORMER "Jens Thomas / Christof Lauer"
ISRC DEA890300074
INDEX 01 00:00:00
FILE "05 - XTC-Blue.wav" WAVE
TRACK 05 AUDIO
TITLE "XTC-Blue"
PERFORMER "Jens Thomas / Christof Lauer"
ISRC DEA890300075
INDEX 01 00:00:00
FILE "06 - Golden Lake.wav" WAVE
TRACK 06 AUDIO
TITLE "Golden Lake"
PERFORMER "Jens Thomas / Christof Lauer"
ISRC DEA890300076
INDEX 01 00:00:00
TRACK 07 AUDIO
TITLE "Into the Black"
PERFORMER "Jens Thomas / Christof Lauer"
ISRC DEA890300077
INDEX 00 02:38:25
FILE "07 - Into the Black.wav" WAVE
INDEX 01 00:00:00
TRACK 08 AUDIO
TITLE "Velvet Horizon"
PERFORMER "Jens Thomas / Christof Lauer"
ISRC DEA890300078
INDEX 00 01:57:35
FILE "08 - Velvet Horizon.wav" WAVE
INDEX 01 00:00:00
FILE "09 - The Yellow Circle.wav" WAVE
TRACK 09 AUDIO
TITLE "The Yellow Circle"
PERFORMER "Jens Thomas / Christof Lauer"
ISRC DEA890300079
INDEX 01 00:00:00
TRACK 10 AUDIO
TITLE "Be Yourself"
PERFORMER "Jens Thomas / Christof Lauer"
ISRC DEA890300081
INDEX 00 06:45:20
FILE "10 - Be Yourself.wav" WAVE
INDEX 01 00:00:00
TRACK 11 AUDIO
TITLE "Rodeo"
PERFORMER "Jens Thomas / Christof Lauer"
ISRC DEA890300084
INDEX 00 03:39:05
FILE "11 - Rodeo.wav" WAVE
INDEX 01 00:00:00
TRACK 12 AUDIO
TITLE "My Shy Silver"
PERFORMER "Jens Thomas / Christof Lauer"
ISRC DEA890300082
INDEX 00 03:12:25
FILE "12 - My Shy Silver.wav" WAVE
INDEX 01 00:00:00
TRACK 13 AUDIO
TITLE "Pure Purple"
PERFORMER "Jens Thomas / Christof Lauer"
ISRC DEA890300083
INDEX 00 06:01:45
FILE "13 - Pure Purple.wav" WAVE
INDEX 01 00:00:00
Any questions -> support@pro-jazz.com. По всем вопросам пишите -> support@pro-jazz.com
18:30
166
Нет комментариев. Ваш будет первым!