Вы используете незарегистрированную версию компонента "Вкладки"!

Поиск

(Free Jazz) Pat Metheny & Ornette Coleman - 1986 - Song X (GED 24096) FLAC (image+.cue) lossless

(Free Jazz) Pat Metheny & Ornette Coleman - 1986 - Song X (GED 24096) FLAC (image+.cue) lossless
Треклист:

PAT METHENY / ORNETTE COLEMAN ◦ SONG X
Genre: Free Jazz
Originally released: June 1986
Country: USA
CD: West Germany, Geffen, GED 24096 (GEFD 24096), (1986)
Audio: FLAC (image+.cue)
Total time: 48:44
Source: own rip
Scans: 600 dpi .jpg
01. Song X (5:38)
02. Mob Job (4:13)
03. Endangered Species (13:19)
04. Video Games (5:21)
05. Kathelin Gray (4:15)
06. Trigonometry (5:09)
07. Song X Duo (3:08)
08. Long Time No See (7:37)
 
Credits
Pat Metheny – guitar, guitar synthesizer, liner notes
Ornette Coleman – alto saxophone, violin
Charlie Haden – acoustic bass
Jack DeJohnette – drums
Denardo Coleman – drums, percussion
Recorded at The Power Station in New York City between December 12 and December 14, 1985

 
Лог создания рипа
Exact Audio Copy V1.0 beta 3 from 29. August 2011
EAC extraction logfile from 12. December 2014, 12:44
Pat Metheny & Ornette Coleman / Song X (GED 24096)
Used drive : HL-DT-STDVDRAM GE20NU11 Adapter: 0 ID: 1
Read mode : Secure
Utilize accurate stream : Yes
Defeat audio cache : Yes
Make use of C2 pointers : No
Read offset correction : 667
Overread into Lead-In and Lead-Out : No
Fill up missing offset samples with silence : Yes
Delete leading and trailing silent blocks : No
Null samples used in CRC calculations : Yes
Used interface : Native Win32 interface for Win NT & 2000
Used output format : User Defined Encoder
Selected bitrate : 896 kBit/s
Quality : High
Add ID3 tag : No
Command line compressor : C:\Program Files\EAC 3\Exact Audio Copy\Flac\flac.exe
Additional command line options : -V -8 %source%
TOC of the extracted CD
Track | Start | Length | Start sector | End sector
---------------------------------------------------------
1 | 0:00.33 | 5:38.60 | 33 | 25442
2 | 5:39.18 | 4:13.05 | 25443 | 44422
3 | 9:52.23 | 13:19.57 | 44423 | 104404
4 | 23:12.05 | 5:21.65 | 104405 | 128544
5 | 28:33.70 | 4:15.68 | 128545 | 147737
6 | 32:49.63 | 5:09.17 | 147738 | 170929
7 | 37:59.05 | 3:08.65 | 170930 | 185094
8 | 41:07.70 | 7:37.03 | 185095 | 219372
Range status and errors
Selected range
Filename C:\OdW\Pat Metheny & Ornette Coleman (1986) Song X (GED 24096)\Pat Metheny & Ornette Coleman - Song X (GED 24096).wav
Peak level 100.0 %
Extraction speed 1.7 X
Range quality 100.0 %
Test CRC 24BAB0A8
Copy CRC 24BAB0A8
Copy OK
No errors occurred
AccurateRip summary
Track 1 accurately ripped (confidence 25) [27A0C1D3] (AR v2)
Track 2 accurately ripped (confidence 25) [8BF40F4E] (AR v2)
Track 3 accurately ripped (confidence 24) [C8A80FFF] (AR v2)
Track 4 accurately ripped (confidence 25) [88C3DB23] (AR v2)
Track 5 accurately ripped (confidence 24) [F505CAFE] (AR v2)
Track 6 accurately ripped (confidence 25) [8EFDD8A6] (AR v2)
Track 7 accurately ripped (confidence 25) [9FDF5854] (AR v2)
Track 8 accurately ripped (confidence 25) [D408798E] (AR v2)
All tracks accurately ripped
End of status report
==== Log checksum 92FA2AFCBD29C8E28AD9053365FD22CC38B1385E17F2DED70A76838CD91F39C9 ====
 
Содержание индексной карты (.CUE)
REM GENRE Jazz
REM DATE 1986
REM DISCID 6F0B6C08
REM COMMENT "ExactAudioCopy v1.0b3"
PERFORMER "Pat Metheny & Ornette Coleman"
TITLE "Song X (GED 24096)"
FILE "Pat Metheny & Ornette Coleman - Song X (GED 24096).flac" WAVE
TRACK 01 AUDIO
TITLE "Song X"
PERFORMER "Pat Metheny"
INDEX 00 00:00:00
INDEX 01 00:00:33
TRACK 02 AUDIO
TITLE "Mob Job"
PERFORMER "Pat Metheny"
INDEX 00 05:36:13
INDEX 01 05:39:18
TRACK 03 AUDIO
TITLE "Endangered Species"
PERFORMER "Pat Metheny"
INDEX 00 09:48:38
INDEX 01 09:52:23
TRACK 04 AUDIO
TITLE "Video Games"
PERFORMER "Pat Metheny"
INDEX 00 23:07:55
INDEX 01 23:12:05
TRACK 05 AUDIO
TITLE "Kathelin Gray"
PERFORMER "Pat Metheny"
INDEX 00 28:28:73
INDEX 01 28:33:70
TRACK 06 AUDIO
TITLE "Trigonometry"
PERFORMER "Pat Metheny"
INDEX 00 32:46:50
INDEX 01 32:49:63
TRACK 07 AUDIO
TITLE "Song X Duo"
PERFORMER "Pat Metheny"
INDEX 00 37:59:03
INDEX 01 37:59:05
TRACK 08 AUDIO
TITLE "Long Time No See"
PERFORMER "Pat Metheny"
INDEX 01 41:07:70
 
.accurip
[CUETools log; Date: 12.12.2014 12:51:30; Version: 2.1.4]
Pregap length 00:00:33.
[CTDB TOCID: 7iM3.hImlqrDr7CYgp0kb3N0DTw-] found.
Track | CTDB Status
1 | (3/3) Accurately ripped
2 | (3/3) Accurately ripped
3 | (3/3) Accurately ripped
4 | (3/3) Accurately ripped
5 | (3/3) Accurately ripped
6 | (3/3) Accurately ripped
7 | (3/3) Accurately ripped
8 | (3/3) Accurately ripped
[AccurateRip ID: 000fa7c1-00677e7c-6f0b6c08] found.
Track [ CRC | V2 ] Status
01 [e092c6f1|27a0c1d3] (19+25/55) Accurately ripped
02 [283a72a2|8bf40f4e] (19+25/55) Accurately ripped
03 [772c2845|c8a80fff] (19+24/53) Accurately ripped
04 [b238a952|88c3db23] (19+25/55) Accurately ripped
05 [5f3e466d|f505cafe] (19+24/54) Accurately ripped
06 [4114e694|8efdd8a6] (19+25/55) Accurately ripped
07 [2fb76075|9fdf5854] (19+25/55) Accurately ripped
08 [5e87c07d|d408798e] (17+25/53) Accurately ripped
Offsetted by -681:
01 [811d753e] (05/55) Accurately ripped
02 [a084977f] (05/55) Accurately ripped
03 [d6074859] (05/53) Accurately ripped
04 [c5b311ce] (05/55) Accurately ripped
05 [6a1af26e] (05/54) Accurately ripped
06 [d9c5e847] (05/55) Accurately ripped
07 [11126585] (05/55) Accurately ripped
08 [66e60915] (05/53) Accurately ripped
Track Peak [ CRC32 ] [W/O NULL] [ LOG ]
-- 100,0 [24BAB0A8] [07C3B082] CRC32
01 100,0 [6B8B04F1] [1B12D43A]
02 52,5 [BCEFE09B] [801FE0D5]
03 100,0 [39A4A234] [26CD3122]
04 77,9 [0A337523] [699C20A4]
05 44,1 [A3C0971E] [0B8700E1]
06 100,0 [744E732E] [FE18F32D]
07 32,6 [C2A864CB] [D8E81B61]
08 100,0 [28114599] [B207B104]

 
CD, Matrix, Back
По всем вопросам пишите личное сообщение пользователю M0p94ok.
10:32
373
Нет комментариев. Ваш будет первым!