Вы используете незарегистрированную версию компонента "Вкладки"!

Поиск

(Free Improvisation) [CD] Akira Sakata & Jim O'Rourke (Darin Gray, Chris Corsano, Manabu Sakata) - ExpLosion - 2006, FLAC (tracks+.cue), lossless

(Free Improvisation) [CD] Akira Sakata & Jim O'Rourke (Darin Gray, Chris Corsano, Manabu Sakata) - ExpLosion - 2006, FLAC (tracks+.cue), lossless
Треклист:
Akira Sakata & Jim O'Rourke / ExpLosion
Жанр: Free Improvisation
Носитель: CD
Страна-производитель диска (релиза): Japan
Год издания: 2006
Издатель (лейбл): PJL
Номер по каталогу: MTCJ-3029
Аудиокодек: FLAC (*.flac)
Тип рипа: tracks+.cue
Битрейт аудио: lossless
Продолжительность: 59:14
Источник (релизер): whatcd (CptInsect)
Наличие сканов в содержимом раздачи: нет
Треклист:
1. Eddy Bear (16:22)
2. BacheLor of Divinity (15:47)
3. Tombouctou (27:05)
 
Лог создания рипа
Exact Audio Copy V0.99 prebeta 5 from 4. May 2009
EAC extraction logfile from 17. April 2010, 21:33
Akira Sakata & Jim O'Rourke / ExpLosion
Used drive : TSSTcorpCDDVDW SH-S223B Adapter: 5 ID: 0
Read mode : Secure
Utilize accurate stream : Yes
Defeat audio cache : Yes
Make use of C2 pointers : No
Read offset correction : 6
Overread into Lead-In and Lead-Out : No
Fill up missing offset samples with silence : Yes
Delete leading and trailing silent blocks : No
Null samples used in CRC calculations : Yes
Used interface : Installed external ASPI interface
Gap handling : Appended to previous track
Used output format : User Defined Encoder
Selected bitrate : 1024 kBit/s
Quality : High
Add ID3 tag : No
Command line compressor : C:\Program Files\Exact Audio Copy\Flac\flac.exe
Additional command line options : -V -8 -T "artist=%a" -T "title=%t" -T "album=%g" -T "date=%y" -T "tracknumber=%n" -T "genre=%m" %s
TOC of the extracted CD
Track | Start | Length | Start sector | End sector
---------------------------------------------------------
1 | 0:00.00 | 16:22.12 | 0 | 73661
2 | 16:22.12 | 15:46.38 | 73662 | 144649
3 | 32:08.50 | 27:05.30 | 144650 | 266554
Track 1
Filename C:\EACrips\Akira Sakata & Jim O'Rourke (2006) ExpLosion\01 - Eddy Bear.wav
Pre-gap length 0:00:02.00
Peak level 97.9 %
Track quality 100.0 %
Test CRC 6B23806E
Copy CRC 6B23806E
Track not present in AccurateRip database
Copy OK
Track 2
Filename C:\EACrips\Akira Sakata & Jim O'Rourke (2006) ExpLosion\02 - BacheLor of Divinity.wav
Peak level 97.9 %
Track quality 100.0 %
Test CRC 446154FB
Copy CRC 446154FB
Track not present in AccurateRip database
Copy OK
Track 3
Filename C:\EACrips\Akira Sakata & Jim O'Rourke (2006) ExpLosion\03 - Tombouctou.wav
Pre-gap length 0:00:00.98
Peak level 97.9 %
Track quality 100.0 %
Test CRC 1E2FD9D5
Copy CRC 1E2FD9D5
Track not present in AccurateRip database
Copy OK
None of the tracks are present in the AccurateRip database
No errors occurred
End of status report
 
Содержание индексной карты (.CUE)
REM GENRE Unknown
REM DATE 2006
REM DISCID 240DE203
REM COMMENT "ExactAudioCopy v0.99pb5"
PERFORMER "Akira Sakata & Jim O'Rourke"
TITLE "ExpLosion"
FILE "Akira Sakata & Jim O'Rourke (2006) ExpLosion\01 - Eddy Bear.wav" WAVE
TRACK 01 AUDIO
TITLE "Eddy Bear"
PERFORMER "Akira Sakata & Jim O'Rourke"
INDEX 01 00:00:00
FILE "Akira Sakata & Jim O'Rourke (2006) ExpLosion\02 - BacheLor of Divinity.wav" WAVE
TRACK 02 AUDIO
TITLE "BacheLor of Divinity"
PERFORMER "Akira Sakata & Jim O'Rourke"
INDEX 01 00:00:00
TRACK 03 AUDIO
TITLE "Tombouctou"
PERFORMER "Akira Sakata & Jim O'Rourke"
INDEX 00 15:45:39
FILE "Akira Sakata & Jim O'Rourke (2006) ExpLosion\03 - Tombouctou.wav" WAVE
INDEX 01 00:00:00
Доп. информация: Recorded live at Pit Inn, Tokyo, 22 April 2005.
 
Состав
Alto Saxophone, Clarinet, Percussion – Akira Sakata
Bass – Darin Gray
Drums – Chris Corsano
Drums, Electronics – Manabu Sakata
Guitar – Jim O'Rourke
По всем вопросам пишите личное сообщение пользователю M0p94ok.
10:33
279
Нет комментариев. Ваш будет первым!