Вы используете незарегистрированную версию компонента "Вкладки"!

Поиск

(Free Improvisation) [CD] Egidijus Buožis & Petras Vyšniauskas (Egidijus Buozis & Petras Vysniauskas) - Spon ta nica - 2007, WavPack (image+.cue), lossless

(Free Improvisation) [CD] Egidijus Buožis & Petras Vyšniauskas (Egidijus Buozis & Petras Vysniauskas) - Spon ta nica - 2007, WavPack (image+.cue), lossless
Треклист:
Egidijus Buožis & Petras Vyšniauskas / Spon_Ta____ __Nica
Жанр: Free Improvisation
Носитель: CD
Страна-производитель диска (релиза): LT
Год издания: 2007
Издатель (лейбл): Prior Records
Номер по каталогу: PRCD-032
Страна исполнителя (группы): LT
Аудиокодек: WavPack (*.wv)
Тип рипа: image+.cue
Битрейт аудио: lossless
Продолжительность: 1:17:29
Источник (релизер): Свой рип / Test & Copy
Наличие сканов в содержимом раздачи: нет
Треклист:
1. Spon_Ta______ ___nica #1
2. Sp_Ontani_ ___ca #2
3. ___Spo_nta________nica #3
4. Spo______nta_nica #4
5. Spont_anica #5
6. _Spon________tanica #6
7. ______Sponta_nica_____ #7
8. Spon_tanic_ _a #8
9. Sp___onta___ ___nica #9
10. _Sp___onta_ _nica #10
11. Spon_ta______ ___nica #11
12. ________Spon_ta_nica #12
 
Лог создания рипа
Exact Audio Copy V1.0 beta 4 from 7. December 2014
EAC extraction logfile from 27. March 2015, 18:35
Egidijus Buozis & Petras Vysniauskas / Spon_ta____ __nica
Used drive : ATAPI iHAS120 X Adapter: 1 ID: 0
Read mode : Secure
Utilize accurate stream : Yes
Defeat audio cache : Yes
Make use of C2 pointers : No
Read offset correction : 48
Overread into Lead-In and Lead-Out : No
Fill up missing offset samples with silence : Yes
Delete leading and trailing silent blocks : No
Null samples used in CRC calculations : Yes
Used interface : Native Win32 interface for Win NT & 2000
Used output format : User Defined Encoder
Selected bitrate : 768 kBit/s
Quality : High
Add ID3 tag : No
Command line compressor : C:\Program Files (x86)\Exact Audio Copy\wavpack.exe
Additional command line options : -hm -w "Year=%year%" -w "Genre=%genre%" %source% %dest%
TOC of the extracted CD
Track | Start | Length | Start sector | End sector
---------------------------------------------------------
1 | 0:00.00 | 7:53.47 | 0 | 35521
2 | 7:53.47 | 6:04.13 | 35522 | 62834
3 | 13:57.60 | 4:17.00 | 62835 | 82109
4 | 18:14.60 | 4:30.53 | 82110 | 102412
5 | 22:45.38 | 9:56.70 | 102413 | 147182
6 | 32:42.33 | 6:32.43 | 147183 | 176625
7 | 39:15.01 | 6:08.39 | 176626 | 204264
8 | 45:23.40 | 6:32.47 | 204265 | 233711
9 | 51:56.12 | 4:27.18 | 233712 | 253754
10 | 56:23.30 | 11:25.15 | 253755 | 305144
11 | 67:48.45 | 4:23.59 | 305145 | 324928
12 | 72:12.29 | 5:16.43 | 324929 | 348671
Range status and errors
Selected range
Filename C:\M\Egidijus Buozis & Petras Vysniauskas - Spon_ta____ __nica.wav
Peak level 99.0 %
Extraction speed 1.0 X
Range quality 99.9 %
Test CRC 5AC9A18C
Copy CRC 5AC9A18C
Copy OK
No errors occurred
AccurateRip summary
Track 1 not present in database
Track 2 not present in database
Track 3 not present in database
Track 4 not present in database
Track 5 not present in database
Track 6 not present in database
Track 7 not present in database
Track 8 not present in database
Track 9 not present in database
Track 10 not present in database
Track 11 not present in database
Track 12 not present in database
None of the tracks are present in the AccurateRip database
End of status report
---- CUETools DB Plugin V2.1.4
[CTDB TOCID: JAzkzKgoHhLl_S2hFfyhdZcMvkE-] found
Submit result: JAzkzKgoHhLl_S2hFfyhdZcMvkE- has been confirmed
Track | CTDB Status
1 | (1/1) Accurately ripped
2 | (1/1) Accurately ripped
3 | (1/1) Accurately ripped
4 | (1/1) Accurately ripped
5 | (1/1) Accurately ripped
6 | (1/1) Accurately ripped
7 | (1/1) Accurately ripped
8 | (1/1) Accurately ripped
9 | (1/1) Accurately ripped
10 | (1/1) Accurately ripped
11 | (1/1) Accurately ripped
12 | (1/1) Accurately ripped
==== Log checksum 81DB10F3183102B839BD6AC909A50D81C33B0E9D2F437DC030227099645BB622 ====
 
Содержание индексной карты (.CUE)
REM GENRE Jazz
REM DATE 2007
REM DISCID B512280C
REM COMMENT ExactAudioCopy v1.0b4
PERFORMER "Egidijus Buozis & Petras Vysniauskas"
TITLE "Spon_ta____ __nica"
FILE "Egidijus Buozis & Petras Vysniauskas - Spon_ta____ __nica.wv" WAVE
TRACK 01 AUDIO
TITLE "Spon_ta____ __nica"
INDEX 01 00:00:00
TRACK 02 AUDIO
TITLE "Sp_ontani_ __ca"
INDEX 01 07:53:47
TRACK 03 AUDIO
TITLE "__Spo_nta_____nica"
INDEX 01 13:57:60
TRACK 04 AUDIO
TITLE "Spo____nta_nica"
INDEX 01 18:14:60
TRACK 05 AUDIO
TITLE "Spont_anica"
INDEX 01 22:45:38
TRACK 06 AUDIO
TITLE "____Sponta_nica___"
INDEX 01 32:42:33
TRACK 07 AUDIO
TITLE "Spon_tanic_ _a"
INDEX 01 39:15:01
TRACK 08 AUDIO
TITLE "Sp__onta__ __nica"
INDEX 01 45:23:40
TRACK 09 AUDIO
TITLE "_Sp_onta_ _nica"
INDEX 01 51:56:12
TRACK 10 AUDIO
TITLE "_Spon_____tanica"
INDEX 01 56:23:30
TRACK 11 AUDIO
TITLE "Spon_ta____ __nica"
INDEX 01 67:48:45
TRACK 12 AUDIO
TITLE "_____Spon_ta_nica"
INDEX 00 72:10:29
INDEX 01 72:12:29
 
Об альбоме (сборнике)
Recorded on November 22, 2006, at St. Catherine's Church in Vilnius.
Track 12 is recorded on December 27, 2006, at Klaipėda Concert Hall.
 
Состав
Piano – Egidijus Buožis (tracks: 1 to 4, 6 to 12)
Soprano Saxophone – Petras Vyšniauskas (tracks: 1 to 3, 5 to 12)
По всем вопросам пишите личное сообщение пользователю M0p94ok.
10:34
233
Нет комментариев. Ваш будет первым!