Вы используете незарегистрированную версию компонента "Вкладки"!

Поиск

(free jazz) [cd] Marty Ehrlich Large Ensemble - A Trumpet in the Morning (2013), FLAC (tracks+.cue), lossless

(free jazz) [cd] Marty Ehrlich Large Ensemble - A Trumpet in the Morning (2013), FLAC (tracks+.cue), lossless
Треклист:
(free jazz) [cd] Marty Ehrlich Large Ensemble - A Trumpet in the Morning (2013), FLAC (tracks+.cue), lossless


Marty Ehrlich Large Ensemble - A Trumpet in the Morning (2013)

Жанр:free jazz
Год выпуска: 2013
Издатель (лейбл):New World Records
Формат: FLAC (tracks+.cue)
Битрейт аудио: lossless
Продолжительность
Источник: what.cd

tracks

1. Prelude: Agbekor Translations 3:28
2. A Trumpet in the Morning 23:20
3. Blues for Peace 11:06
4. Rundowns and Turnbacks 20:21
5. M Variations (Melody for Madeleine) 14:01
6. Postlude: Agbekor Translations 2:47


 
.log
Exact Audio Copy V1.0 beta 3 from 29. August 2011
EAC extraction logfile from 7. December 2013, 21:44
Marty Ehrlich Large Ensemble / A Trumpet in the Morning
Used drive : TSSTcorpCD/DVDW SH-S182M Adapter: 2 ID: 0
Read mode : Secure
Utilize accurate stream : Yes
Defeat audio cache : Yes
Make use of C2 pointers : No
Read offset correction : 6
Overread into Lead-In and Lead-Out : No
Fill up missing offset samples with silence : Yes
Delete leading and trailing silent blocks : No
Null samples used in CRC calculations : Yes
Used interface : Installed external ASPI interface
Gap handling : Appended to previous track
Used output format : User Defined Encoder
Selected bitrate : 1024 kBit/s
Quality : High
Add ID3 tag : No
Command line compressor : C:\Program Files\eac-1.0beta3\FLAC\FLAC.EXE
Additional command line options : -8 -V -T "ARTIST=%artist%" -T "TITLE=%title%" -T "ALBUM=%albumtitle%" -T "DATE=%year%" -T "TRACKNUMBER=%tracknr%" -T "GENRE=%genre%" -T "PERFORMER=%albuminterpret%" -T "COMPOSER=%composer%" %haslyrics%--tag-from-file=LYRICS="%lyricsfile%"%haslyrics% -T "ALBUMARTIST=%albumartist%" -T "ALBUM ARTIST=%albumartist%" -T "DISCNUMBER=%cdnumber%" -T "TOTALDISCS=%totalcds%" -T "TOTALTRACKS=%numtracks%" -T "COMMENT=ivo" %source% -o %dest%
TOC of the extracted CD
Track | Start | Length | Start sector | End sector
---------------------------------------------------------
1 | 0:00.00 | 3:32.18 | 0 | 15917
2 | 3:32.18 | 23:23.17 | 15918 | 121159
3 | 26:55.35 | 11:13.02 | 121160 | 171636
4 | 38:08.37 | 20:27.22 | 171637 | 263683
5 | 58:35.59 | 14:01.61 | 263684 | 326819
6 | 72:37.45 | 2:47.13 | 326820 | 339357
Track 1
Filename E:\igor\eac\01 - Prelude - Agbekor Translations.wav
Pre-gap length 0:00:02.00
Peak level 99.0 %
Extraction speed 4.4 X
Track quality 100.0 %
Test CRC E189599E
Copy CRC E189599E
Track not present in AccurateRip database
Copy OK
Track 2
Filename E:\igor\eac\02 - A Trumpet in the Morning.wav
Pre-gap length 0:00:03.08
Peak level 99.3 %
Extraction speed 6.4 X
Track quality 100.0 %
Test CRC 878630AB
Copy CRC 878630AB
Track not present in AccurateRip database
Copy OK
Track 3
Filename E:\igor\eac\03 - Blues for Peace.wav
Pre-gap length 0:00:01.73
Peak level 99.1 %
Extraction speed 7.6 X
Track quality 100.0 %
Test CRC E9B6FDAD
Copy CRC E9B6FDAD
Track not present in AccurateRip database
Copy OK
Track 4
Filename E:\igor\eac\04 - Rundowns and Turnbacks.wav
Pre-gap length 0:00:05.32
Peak level 99.2 %
Extraction speed 8.9 X
Track quality 100.0 %
Test CRC 8BCB1B04
Copy CRC 8BCB1B04
Track not present in AccurateRip database
Copy OK
Track 5
Filename E:\igor\eac\05 - M Variations (Melody for Madeleine).wav
Pre-gap length 0:00:04.58
Peak level 99.2 %
Extraction speed 9.7 X
Track quality 100.0 %
Test CRC 9461C513
Copy CRC 9461C513
Track not present in AccurateRip database
Copy OK
Track 6
Filename E:\igor\eac\06 - Postlude - Agbekor Translations.wav
Peak level 99.1 %
Extraction speed 8.5 X
Track quality 100.0 %
Test CRC 4E2AB485
Copy CRC 4E2AB485
Track not present in AccurateRip database
Copy OK
None of the tracks are present in the AccurateRip database
No errors occurred
End of status report
---- CUETools DB Plugin V2.1.4
[CTDB TOCID: P8OGFXGxNIIr089BskRwAt7gEOw-] disk not present in database
Submit result: P8OGFXGxNIIr089BskRwAt7gEOw- has been uploaded
==== Log checksum AB514F6005525F5502582DFFE4F300E596AF768E0B319C7A22CD9A992109B6E2 ====
 
.cue
REM GENRE "New World Records 80752"
REM DATE 2013
REM DISCID 4A11AC06
REM COMMENT "ExactAudioCopy v1.0b3"
PERFORMER "Marty Ehrlich Large Ensemble"
TITLE "A Trumpet in the Morning"
FILE "01 - Prelude - Agbekor Translations.wav" WAVE
TRACK 01 AUDIO
TITLE "Prelude: Agbekor Translations"
PERFORMER "Marty Ehrlich Large Ensemble"
INDEX 01 00:00:00
TRACK 02 AUDIO
TITLE "A Trumpet in the Morning"
PERFORMER "Marty Ehrlich Large Ensemble"
INDEX 00 03:29:12
FILE "02 - A Trumpet in the Morning.wav" WAVE
INDEX 01 00:00:00
TRACK 03 AUDIO
TITLE "Blues for Peace"
PERFORMER "Marty Ehrlich Large Ensemble"
INDEX 00 23:21:37
FILE "03 - Blues for Peace.wav" WAVE
INDEX 01 00:00:00
TRACK 04 AUDIO
TITLE "Rundowns and Turnbacks"
PERFORMER "Marty Ehrlich Large Ensemble"
INDEX 00 11:07:53
FILE "04 - Rundowns and Turnbacks.wav" WAVE
INDEX 01 00:00:00
TRACK 05 AUDIO
TITLE "M Variations (Melody for Madeleine)"
PERFORMER "Marty Ehrlich Large Ensemble"
INDEX 00 20:22:53
FILE "05 - M Variations (Melody for Madeleine).wav" WAVE
INDEX 01 00:00:00
FILE "06 - Postlude - Agbekor Translations.wav" WAVE
TRACK 06 AUDIO
TITLE "Postlude: Agbekor Translations"
PERFORMER "Marty Ehrlich Large Ensemble"
INDEX 01 00:00:00

другие релизы
По всем вопросам пишите личное сообщение пользователю M0p94ok.
10:32
220
Нет комментариев. Ваш будет первым!