Поиск

(Avant-Garde, Post-Bop Jazz) [CD] Christof Lauer Trio (Michel Godard, Gary Husband) - Blues in Mind {ACT 9446-2, Germany} - 2007, FLAC (tracks+.cue), lossless

(Avant-Garde, Post-Bop Jazz) [CD] Christof Lauer Trio (Michel Godard, Gary Husband) - Blues in Mind {ACT 9446-2, Germany} - 2007, FLAC (tracks+.cue), lossless
Треклист:
Christof Lauer Trio (Michel Godard, Gary Husband) / Blues in Mind
Жанр: Avant-Garde, Post-Bop Jazz
Носитель: CD
Страна-производитель диска (релиза): Germany
Год издания: 2007
Издатель (лейбл): ACT
Номер по каталогу: 9446-2
Аудиокодек: FLAC (*.flac)
Тип рипа: tracks+.cue
Битрейт аудио: lossless
Продолжительность: 00:56:52
Источник (релизер): Max Monteiro
Наличие сканов в содержимом раздачи: front + back
Треклист:
01. Un regalo per natale - 04:57 (Godard, Michel)
02. The Kite - 06:43 (Lauer, Christof)
03. Pan Fatigué - 06:08 (Lauer, Christof)
04. First Bite - 06:10 (Husband, Gary)
05. Suave sospiro - 05:30 (Godard, Michel)
06. At Least - 02:42 (Lauer, Christof)
07. Blues in Mind - 05:22 (Lauer, Christof)
08. Circe - 01:48 (Lauer, Christof)
09. Angels Over City Square - 07:43 (Husband, Gary)
10. De Cuir Et De Cuivre - 03:59 (Godard, Michel)
11. One Prayer - 05:56 (Husband, Gary)
Recorded at Zerkall Studio on April 23-25, 2006 by Walter Quintus
Mixed and mastered by Walter Quintus
Produced by Christof Lauer
Personnel:
Christof Lauer – soprano + tenor saxophones
Michel Godard – tuba + serpent
Gary Husband – drums + piano
 
Лог создания рипа (EAC)
Exact Audio Copy V1.0 beta 3 from 29. August 2011
EAC extraction logfile from 14. September 2013, 17:39
Christof Lauer Trio / Blues in Mind
Used drive : SlimtypeeNAU508 5 Adapter: 1 ID: 0
Read mode : Secure
Utilize accurate stream : Yes
Defeat audio cache : Yes
Make use of C2 pointers : No
Read offset correction : 6
Overread into Lead-In and Lead-Out : No
Fill up missing offset samples with silence : Yes
Delete leading and trailing silent blocks : No
Null samples used in CRC calculations : Yes
Used interface : Native Win32 interface for Win NT & 2000
Gap handling : Appended to previous track
Used output format : User Defined Encoder
Selected bitrate : 768 kBit/s
Quality : High
Add ID3 tag : No
Command line compressor : C:\Program Files (x86)\Exact Audio Copy\Flac\flac.exe
Additional command line options : -8 -V -T "ARTIST=%artist%" -T "TITLE=%title%" -T "ALBUM=%albumtitle%" -T "DATE=%year%" -T "TRACKNUMBER=%tracknr%" -T "GENRE=%genre%" -T "PERFORMER=%albuminterpret%" -T "COMPOSER=%composer%" %haslyrics%--tag-from-file=LYRICS="%lyricsfile%"%haslyrics% -T "ALBUMARTIST=%albumartist%" -T "DISCNUMBER=%cdnumber%" -T "TOTALDISCS=%totalcds%" -T "TOTALTRACKS=%numtracks%" -T "COMMENT=%comment%" %source% -o %dest%
TOC of the extracted CD
Track | Start | Length | Start sector | End sector
---------------------------------------------------------
1 | 0:00.00 | 4:57.29 | 0 | 22303
2 | 4:57.29 | 6:43.15 | 22304 | 52543
3 | 11:40.44 | 6:08.65 | 52544 | 80208
4 | 17:49.34 | 6:10.73 | 80209 | 108031
5 | 24:00.32 | 5:30.21 | 108032 | 132802
6 | 29:30.53 | 2:42.14 | 132803 | 144966
7 | 32:12.67 | 5:22.40 | 144967 | 169156
8 | 37:35.32 | 1:48.31 | 169157 | 177287
9 | 39:23.63 | 7:43.23 | 177288 | 212035
10 | 47:07.11 | 4:01.25 | 212036 | 230135
11 | 51:08.36 | 5:55.30 | 230136 | 256790
Track 1
Filename C:\EAC rips\01 - Un regalo per natale.wav
Pre-gap length 0:00:02.00
Peak level 100.0 %
Extraction speed 2.2 X
Track quality 100.0 %
Test CRC D119A2D9
Copy CRC D119A2D9
Accurately ripped (confidence 3) [C5BA06AB] (AR v2)
Copy OK
Track 2
Filename C:\EAC rips\02 - The Kite.wav
Pre-gap length 0:00:01.00
Peak level 100.0 %
Extraction speed 2.6 X
Track quality 100.0 %
Test CRC 48FD6CEF
Copy CRC 48FD6CEF
Accurately ripped (confidence 3) [9C1CBC0A] (AR v2)
Copy OK
Track 3
Filename C:\EAC rips\03 - Pan fatigué.wav
Pre-gap length 0:00:01.00
Peak level 100.0 %
Extraction speed 2.5 X
Track quality 99.9 %
Test CRC 40E1AE78
Copy CRC 40E1AE78
Accurately ripped (confidence 3) [6BB024A1] (AR v2)
Copy OK
Track 4
Filename C:\EAC rips\04 - First Bite.wav
Pre-gap length 0:00:01.00
Peak level 100.0 %
Extraction speed 3.2 X
Track quality 100.0 %
Test CRC 4F1EAD7D
Copy CRC 4F1EAD7D
Accurately ripped (confidence 3) [5C0BA9E0] (AR v2)
Copy OK
Track 5
Filename C:\EAC rips\05 - Suave sospiro.wav
Pre-gap length 0:00:01.00
Peak level 100.0 %
Extraction speed 3.4 X
Track quality 100.0 %
Test CRC 96A72A5C
Copy CRC 96A72A5C
Accurately ripped (confidence 3) [402BC13E] (AR v2)
Copy OK
Track 6
Filename C:\EAC rips\06 - At Least.wav
Pre-gap length 0:00:01.00
Peak level 100.0 %
Extraction speed 3.2 X
Track quality 100.0 %
Test CRC 9F0F5969
Copy CRC 9F0F5969
Accurately ripped (confidence 3) [C4BC4A72] (AR v2)
Copy OK
Track 7
Filename C:\EAC rips\07 - Blues in Mind.wav
Pre-gap length 0:00:01.00
Peak level 100.0 %
Extraction speed 3.7 X
Track quality 100.0 %
Test CRC 4A1EC2ED
Copy CRC 4A1EC2ED
Accurately ripped (confidence 3) [7C27E20F] (AR v2)
Copy OK
Track 8
Filename C:\EAC rips\08 - Circe.wav
Pre-gap length 0:00:01.00
Peak level 100.0 %
Extraction speed 3.1 X
Track quality 100.0 %
Test CRC 5064AE3A
Copy CRC 5064AE3A
Accurately ripped (confidence 3) [452E6F83] (AR v2)
Copy OK
Track 9
Filename C:\EAC rips\09 - Angels Over City Square.wav
Pre-gap length 0:00:01.00
Peak level 100.0 %
Extraction speed 4.1 X
Track quality 100.0 %
Test CRC 8302435F
Copy CRC 8302435F
Accurately ripped (confidence 3) [5DF964C6] (AR v2)
Copy OK
Track 10
Filename C:\EAC rips\10 - De cuir et de cuivre.wav
Pre-gap length 0:00:01.00
Peak level 100.0 %
Extraction speed 3.2 X
Track quality 99.9 %
Test CRC DCBAF78C
Copy CRC DCBAF78C
Accurately ripped (confidence 3) [CB5CF63C] (AR v2)
Copy OK
Track 11
Filename C:\EAC rips\11 - One Prayer.wav
Pre-gap length 0:00:03.00
Peak level 100.0 %
Extraction speed 4.3 X
Track quality 100.0 %
Test CRC F75B8E56
Copy CRC F75B8E56
Accurately ripped (confidence 3) [92FE0EED] (AR v2)
Copy OK
All tracks accurately ripped
No errors occurred
End of status report
---- CUETools DB Plugin V2.1.4
[CTDB TOCID: 5X.gYgKSv.mf.yjOze8LpUHG4Fo-] found
Submit result: Le serveur a commis une violation de protocole. Section=ResponseStatusLine
Track | CTDB Status
1 | (3/3) Accurately ripped
2 | (3/3) Accurately ripped
3 | (3/3) Accurately ripped
4 | (3/3) Accurately ripped
5 | (3/3) Accurately ripped
6 | (3/3) Accurately ripped
7 | (3/3) Accurately ripped
8 | (3/3) Accurately ripped
9 | (3/3) Accurately ripped
10 | (3/3) Accurately ripped
11 | (2/3) Accurately ripped
==== Log checksum A1456FD21DF4F6F5CB7EA4BDBB12A728EE66E041F0A41648C1A67D9884639AA0 ====
 
Содержание индексной карты (.CUE)
REM GENRE Jazz
REM DATE 2007
REM DISCID 940D5F0B
REM COMMENT "ExactAudioCopy v1.0b3"
PERFORMER "Christof Lauer Trio"
TITLE "Blues in Mind"
FILE "01 - Un regalo per natale.wav" WAVE
TRACK 01 AUDIO
TITLE "Un regalo per natale"
PERFORMER "Christof Lauer Trio"
ISRC DEA890603050
INDEX 01 00:00:00
TRACK 02 AUDIO
TITLE "The Kite"
PERFORMER "Christof Lauer Trio"
ISRC DEA890603051
INDEX 00 04:56:29
FILE "02 - The Kite.wav" WAVE
INDEX 01 00:00:00
TRACK 03 AUDIO
TITLE "Pan fatigue"
PERFORMER "Christof Lauer Trio"
ISRC DEA890603052
INDEX 00 06:42:15
FILE "03 - Pan fatigue.wav" WAVE
INDEX 01 00:00:00
TRACK 04 AUDIO
TITLE "First Bite"
PERFORMER "Christof Lauer Trio"
ISRC DEA890603053
INDEX 00 06:07:65
FILE "04 - First Bite.wav" WAVE
INDEX 01 00:00:00
TRACK 05 AUDIO
TITLE "Suave sospiro"
PERFORMER "Christof Lauer Trio"
ISRC DEA890603054
INDEX 00 06:09:73
FILE "05 - Suave sospiro.wav" WAVE
INDEX 01 00:00:00
TRACK 06 AUDIO
TITLE "At Least"
PERFORMER "Christof Lauer Trio"
ISRC DEA890603055
INDEX 00 05:29:21
FILE "06 - At Least.wav" WAVE
INDEX 01 00:00:00
TRACK 07 AUDIO
TITLE "Blues in Mind"
PERFORMER "Christof Lauer Trio"
ISRC DEA890603056
INDEX 00 02:41:14
FILE "07 - Blues in Mind.wav" WAVE
INDEX 01 00:00:00
TRACK 08 AUDIO
TITLE "Circe"
PERFORMER "Christof Lauer Trio"
ISRC DEA890603057
INDEX 00 05:21:40
FILE "08 - Circe.wav" WAVE
INDEX 01 00:00:00
TRACK 09 AUDIO
TITLE "Angels Over City Square"
PERFORMER "Christof Lauer Trio"
ISRC DEA890603058
INDEX 00 01:47:31
FILE "09 - Angels Over City Square.wav" WAVE
INDEX 01 00:00:00
TRACK 10 AUDIO
TITLE "De cuir et de cuivre"
PERFORMER "Christof Lauer Trio"
ISRC DEA890603059
INDEX 00 07:42:23
FILE "10 - De cuir et de cuivre.wav" WAVE
INDEX 01 00:00:00
TRACK 11 AUDIO
TITLE "One Prayer"
PERFORMER "Christof Lauer Trio"
ISRC DEA890603060
INDEX 00 03:58:25
FILE "11 - One Prayer.wav" WAVE
INDEX 01 00:00:00
 
Об альбоме (сборнике)
"High quality. Transcends the apparent limitations of an unconventional instrumental line up. A very pleasant surprise."
Don’t be fooled by the title. With its highly unusual instrumental line up this certainly isn’t a blues album. However, it is a highly imaginative work that transcends the apparent limitations of the instrumentation. A truly international cast sees German saxophonist Lauer collaborating with French tuba player Michel Godard and British drummer Gary Husband.
The instrumental palette is broader than it might appear. Lauer plays both soprano and tenor saxes and Godard doubles on the mediaeval serpent, certainly the first time I’ve heard this instrument used in a jazz context. Gary Husband is as fine a pianist as he is a drummer and has led his own groups from the piano stool. He appears in both roles here, but primarily as a drummer.
It is a tribute to both the playing and the writing that the music on this album is consistently interesting. Of the eleven original compositions five are by Lauer with Godard and Husband contributing three each.
Godard’s opening “Un Regalo Per Natale” is driven by his astonishingly agile tuba groove underpinned by Husband’s skittering drums. Lauer’s slippery soprano dances over the top of this lively and spirited piece, dropping out to give Godard some solo space before returning for the coda.
On Lauer’s ” The Kite” his tenor swoops and soars a la Garbarek over Godard’s deep, didgeridoo like pulsings.
“Pan Fatigue” also by Lauer is a stately feature for tenor saxophone with sensitive backing from Godard’s rich tuba and Husband’s delicate brushwork.
Husband’s lively “First Bite” features Lauer’s tenor in Coltrane/Brecker mode over an insistent tuba vamp and the composer’s crisp, intelligent drumming. After a solo interlude by Godard the second half of the tune features some killer riffs.
Godard’s “Suave Sospiro” (or “Sweet Sigh) is dark and mysterious. It opens with Husband on piano accompanying the intriguing tones of the serpent. Lauer’s feathery soprano is introduced and Husband returns to the drumkit from where he offers sympathetic support. Taken as a whole the piece is rather lovely.
In total contrast “At Least” is a barnstorming piece of funk with the composer’s raunchy tenor propelled by Godard’s tuba bass lines and Husband’s powerful drumming. The versatile Husband once drummed for Level 42 and this is the only track here that bears any resemblance to his work with them- a slim resemblance I’ll grant you.
It’s back to the dark and mysterious for Lauer’s title track, his brooding, probing tenor backed by a seemingly impossible low register growl from Godard and dense rolling thunder type drumming.
Lauer’s brief “Circe” sees his soprano dancing over Husband’s imaginative and supportive patterns.
The drummer’s “Angels Over City Square” is probably the most wide-ranging track on the album. Husband features on both piano and drums. The gentle shimmering piano introduction gives way to a second section led by Lauer’s tenor and with Husband back behind the traps. Underpinned by Godard’s tuba it’s cerebral but funky. This in turn gives way to a brooding interlude with Husband back on piano. Finally Husband goes back to the drums as a different funk pattern plays us out. An adventurous composition that covers a lot of ground.
Godard’s “De Cuir Et De Cuivre” features a gorgeous (and naggingly familiar) melody line for Lauer’s soprano which soars above Godard’s nimble tuba and Husband’s understated drumming.
Husband’s “One Prayer” finds its composer back at the piano for this gently elegiac album closer.
Taken as a whole this is a remarkable record that covers a wide range of moods and styles and is consistently melodic and engaging. Although not an “easy” listen it is by no means “difficult” and the technical quality of the playing is second to none. Lauer is a boundlessly imaginative player, full of ideas on both tenor and soprano. Godard is incredibly agile and nimble on the tuba and Husband is a flexible and intelligent drummer who colours the music superbly when using either sticks or brushes. He is on the ball throughout and his piano work is a most welcome bonus. When this is added to a set of strong compositions and a high level of group interaction quality is guaranteed. This album has been a very pleasant surprise.
 
Photo
По всем вопросам пишите личное сообщение пользователю M0p94ok.
10:31
278
Нет комментариев. Ваш будет первым!