Вы используете незарегистрированную версию компонента "Вкладки"!

Поиск

(Free Jazz) Ori Kaplan Trio Plus (Tom Abbs, Geoff Mann) - Realms - 1999, FLAC (tracks+.cue), lossless

(Free Jazz) Ori Kaplan Trio Plus (Tom Abbs, Geoff Mann) - Realms - 1999, FLAC (tracks+.cue), lossless
Треклист:
Ori Kaplan Trio Plus / Realms
Жанр: Free Jazz
Страна-производитель диска: US
Год издания: 1999
Издатель (лейбл): CIMP
Номер по каталогу: 190
Аудиокодек: FLAC (*.flac)
Тип рипа: tracks+.cue
Битрейт аудио: lossless
Продолжительность: 63:07
Источник (релизер): whatcd
Наличие сканов в содержимом раздачи: да
Треклист:
1. Compass
2. Drift
3. Phase In
4. Realms
5. To Whom
6. Green Jean
7. Open Ceilings
8. Altering Modes
9. Dusk
10. Be'er
 
Лог создания рипа
Exact Audio Copy V0.99 prebeta 5 from 4. May 2009
EAC extraction logfile from 14. March 2011, 22:48
Ori Kaplan Trio Plus / Realms
Used drive : HL-DT-STDVDRAM GH22NS40 Adapter: 3 ID: 0
Read mode : Secure
Utilize accurate stream : Yes
Defeat audio cache : Yes
Make use of C2 pointers : No
Read offset correction : 667
Overread into Lead-In and Lead-Out : No
Fill up missing offset samples with silence : Yes
Delete leading and trailing silent blocks : No
Null samples used in CRC calculations : Yes
Used interface : Native Win32 interface for Win NT & 2000
Gap handling : Appended to previous track
Used output format : User Defined Encoder
Selected bitrate : 768 kBit/s
Quality : High
Add ID3 tag : No
Command line compressor : C:\Program Files\Exact Audio Copy\Flac\flac.exe
TOC of the extracted CD
Track | Start | Length | Start sector | End sector
---------------------------------------------------------
1 | 0:00.00 | 5:45.48 | 0 | 25922
2 | 5:45.48 | 6:56.45 | 25923 | 57167
3 | 12:42.18 | 3:02.47 | 57168 | 70864
4 | 15:44.65 | 9:06.51 | 70865 | 111865
5 | 24:51.41 | 7:38.39 | 111866 | 146254
6 | 32:30.05 | 8:58.55 | 146255 | 186659
7 | 41:28.60 | 8:14.73 | 186660 | 223782
8 | 49:43.58 | 4:31.21 | 223783 | 244128
9 | 54:15.04 | 4:46.11 | 244129 | 265589
10 | 59:01.15 | 4:06.26 | 265590 | 284065
Track 1
Filename F:\DATA\Music\Jazz\OPRS\Ori Kaplan\(1999) Ori Kaplan Trio Plus - Realms {CIMP}\01 - Compass.wav
Pre-gap length 0:00:02.00
Copy aborted
Track 2
Pre-gap length 0:00:02.74
Copy aborted
Track 3
Pre-gap length 0:00:02.76
Copy aborted
Track 4
Pre-gap length 0:00:02.76
Copy aborted
Track 5
Pre-gap length 0:00:02.76
Copy aborted
Track 6
Pre-gap length 0:00:02.76
Copy aborted
Track 7
Pre-gap length 0:00:02.76
Copy aborted
Track 8
Pre-gap length 0:00:02.76
Copy aborted
Track 9
Pre-gap length 0:00:02.76
Copy aborted
Track 10
Pre-gap length 0:00:02.76
Copy aborted
No tracks could be verified as accurate
There were errors
End of status report
------------------------------------------------------------
Exact Audio Copy V0.99 prebeta 5 from 4. May 2009
EAC extraction logfile from 15. March 2011, 6:30
Ori Kaplan Trio Plus / Realms
Used drive : HL-DT-STDVDRAM GH22NS40 Adapter: 3 ID: 0
Read mode : Secure
Utilize accurate stream : Yes
Defeat audio cache : Yes
Make use of C2 pointers : No
Read offset correction : 667
Overread into Lead-In and Lead-Out : No
Fill up missing offset samples with silence : Yes
Delete leading and trailing silent blocks : No
Null samples used in CRC calculations : Yes
Used interface : Native Win32 interface for Win NT & 2000
Gap handling : Appended to previous track
Used output format : User Defined Encoder
Selected bitrate : 768 kBit/s
Quality : High
Add ID3 tag : No
Command line compressor : C:\Program Files\Exact Audio Copy\Flac\flac.exe
TOC of the extracted CD
Track | Start | Length | Start sector | End sector
---------------------------------------------------------
1 | 0:00.00 | 5:45.48 | 0 | 25922
2 | 5:45.48 | 6:56.45 | 25923 | 57167
3 | 12:42.18 | 3:02.47 | 57168 | 70864
4 | 15:44.65 | 9:06.51 | 70865 | 111865
5 | 24:51.41 | 7:38.39 | 111866 | 146254
6 | 32:30.05 | 8:58.55 | 146255 | 186659
7 | 41:28.60 | 8:14.73 | 186660 | 223782
8 | 49:43.58 | 4:31.21 | 223783 | 244128
9 | 54:15.04 | 4:46.11 | 244129 | 265589
10 | 59:01.15 | 4:06.26 | 265590 | 284065
Track 1
Filename F:\DATA\Music\Jazz\OPRS\Ori Kaplan\(1999) Ori Kaplan Trio Plus - Realms {CIMP}\01 - Compass.wav
Pre-gap length 0:00:02.00
Peak level 100.0 %
Track quality 100.0 %
Test CRC 46B45CA6
Copy CRC 46B45CA6
Accurately ripped (confidence 1) [C717E981]
Copy OK
Track 2
Filename F:\DATA\Music\Jazz\OPRS\Ori Kaplan\(1999) Ori Kaplan Trio Plus - Realms {CIMP}\02 - Drift.wav
Pre-gap length 0:00:02.74
Peak level 100.0 %
Track quality 100.0 %
Test CRC 216A3D97
Copy CRC 216A3D97
Accurately ripped (confidence 1) [C03A5C51]
Copy OK
Track 3
Filename F:\DATA\Music\Jazz\OPRS\Ori Kaplan\(1999) Ori Kaplan Trio Plus - Realms {CIMP}\03 - Phase In.wav
Pre-gap length 0:00:02.76
Peak level 76.0 %
Track quality 99.9 %
Test CRC 978F2271
Copy CRC 978F2271
Accurately ripped (confidence 1) [EB414B4B]
Copy OK
Track 4
Filename F:\DATA\Music\Jazz\OPRS\Ori Kaplan\(1999) Ori Kaplan Trio Plus - Realms {CIMP}\04 - Realms.wav
Pre-gap length 0:00:02.76
Peak level 100.0 %
Track quality 100.0 %
Test CRC FE27A69D
Copy CRC FE27A69D
Accurately ripped (confidence 1) [A3F16F67]
Copy OK
Track 5
Filename F:\DATA\Music\Jazz\OPRS\Ori Kaplan\(1999) Ori Kaplan Trio Plus - Realms {CIMP}\05 - To Whom.wav
Pre-gap length 0:00:02.76
Peak level 98.1 %
Track quality 100.0 %
Test CRC 80BB3999
Copy CRC 80BB3999
Accurately ripped (confidence 1) [7B18CF37]
Copy OK
Track 6
Filename F:\DATA\Music\Jazz\OPRS\Ori Kaplan\(1999) Ori Kaplan Trio Plus - Realms {CIMP}\06 - Green Jean.wav
Pre-gap length 0:00:02.76
Peak level 100.0 %
Track quality 100.0 %
Test CRC 1605434B
Copy CRC 1605434B
Accurately ripped (confidence 1) [6B723DE6]
Copy OK
Track 7
Filename F:\DATA\Music\Jazz\OPRS\Ori Kaplan\(1999) Ori Kaplan Trio Plus - Realms {CIMP}\07 - Open Ceilings.wav
Pre-gap length 0:00:02.76
Peak level 89.6 %
Track quality 100.0 %
Test CRC D58916A5
Copy CRC D58916A5
Accurately ripped (confidence 1) [443581DB]
Copy OK
Track 8
Filename F:\DATA\Music\Jazz\OPRS\Ori Kaplan\(1999) Ori Kaplan Trio Plus - Realms {CIMP}\08 - Altering Modes.wav
Pre-gap length 0:00:02.76
Peak level 95.9 %
Track quality 99.9 %
Test CRC 9B1DA64C
Copy CRC 9B1DA64C
Accurately ripped (confidence 1) [1D2B0D6A]
Copy OK
Track 9
Filename F:\DATA\Music\Jazz\OPRS\Ori Kaplan\(1999) Ori Kaplan Trio Plus - Realms {CIMP}\09 - Dusk.wav
Pre-gap length 0:00:02.76
Peak level 97.9 %
Track quality 100.0 %
Test CRC 49ED5B05
Copy CRC 49ED5B05
Accurately ripped (confidence 1) [524A723E]
Copy OK
Track 10
Filename F:\DATA\Music\Jazz\OPRS\Ori Kaplan\(1999) Ori Kaplan Trio Plus - Realms {CIMP}\10 - Be'er.wav
Pre-gap length 0:00:02.76
Peak level 97.7 %
Track quality 100.0 %
Test CRC 0FC8A455
Copy CRC 0FC8A455
Accurately ripped (confidence 1) [B09ED321]
Copy OK
All tracks accurately ripped
No errors occurred
End of status report
 
Содержание индексной карты (.CUE)
REM GENRE Avantgarde
REM DATE 1999
REM DISCID 9D0ECB0A
REM COMMENT "ExactAudioCopy v0.99pb5"
PERFORMER "Ori Kaplan Trio Plus"
TITLE "Realms"
FILE "01 - Compass.wav" WAVE
TRACK 01 AUDIO
TITLE "Compass"
PERFORMER "Ori Kaplan Trio Plus"
INDEX 01 00:00:00
TRACK 02 AUDIO
TITLE "Drift"
PERFORMER "Ori Kaplan Trio Plus"
INDEX 00 05:42:67
FILE "02 - Drift.wav" WAVE
INDEX 01 00:00:00
TRACK 03 AUDIO
TITLE "Phase In"
PERFORMER "Ori Kaplan Trio Plus"
INDEX 00 06:53:63
FILE "03 - Phase In.wav" WAVE
INDEX 01 00:00:00
TRACK 04 AUDIO
TITLE "Realms"
PERFORMER "Ori Kaplan Trio Plus"
INDEX 00 02:59:65
FILE "04 - Realms.wav" WAVE
INDEX 01 00:00:00
TRACK 05 AUDIO
TITLE "To Whom"
PERFORMER "Ori Kaplan Trio Plus"
INDEX 00 09:03:69
FILE "05 - To Whom.wav" WAVE
INDEX 01 00:00:00
TRACK 06 AUDIO
TITLE "Green Jean"
PERFORMER "Ori Kaplan Trio Plus"
INDEX 00 07:35:57
FILE "06 - Green Jean.wav" WAVE
INDEX 01 00:00:00
TRACK 07 AUDIO
TITLE "Open Ceilings"
PERFORMER "Ori Kaplan Trio Plus"
INDEX 00 08:55:73
FILE "07 - Open Ceilings.wav" WAVE
INDEX 01 00:00:00
TRACK 08 AUDIO
TITLE "Altering Modes"
PERFORMER "Ori Kaplan Trio Plus"
INDEX 00 08:12:16
FILE "08 - Altering Modes.wav" WAVE
INDEX 01 00:00:00
TRACK 09 AUDIO
TITLE "Dusk"
PERFORMER "Ori Kaplan Trio Plus"
INDEX 00 04:28:39
FILE "09 - Dusk.wav" WAVE
INDEX 01 00:00:00
TRACK 10 AUDIO
TITLE "Be'er"
PERFORMER "Ori Kaplan Trio Plus"
INDEX 00 04:43:29
FILE "10 - Be'er.wav" WAVE
INDEX 01 00:00:00
 
Состав
Ori Kaplan (Alto Saxophone)
Tom Abbs (Bass, Tuba)
Geoff Mann (Drums, Trumpet)
Any questions -> support@pro-jazz.com. По всем вопросам пишите -> support@pro-jazz.com
08:09
151
Нет комментариев. Ваш будет первым!