Вы используете незарегистрированную версию компонента "Вкладки"!

Поиск

(Free Jazz) Marian McPartland's Piano Jazz Radio Broadcast - John Medeski - 2006, FLAC (tracks+.cue), lossless

(Free Jazz) Marian McPartland's Piano Jazz Radio Broadcast - John Medeski - 2006, FLAC (tracks+.cue), lossless
Треклист:
Marian McPartland's Piano Jazz Radio Broadcast – John Medeski
Жанр: Free Jazz
Год издания: 2006
Издатель (лейбл): Jazz Alliance
Аудиокодек: FLAC (*.flac)
Тип рипа: tracks+.cue
Битрейт аудио: lossless
Продолжительность: 52:52
Источник: What.cd
Сканов нет
Треклист:
01. Conversation (4:02)
02. Ba-Lue Bolivar Ba-Lues Are (2:52)
03. Conversation (3:26)
04. Out Of This World (4:24)
05. Conversation (2:58)
06. Bemsha Swing (3:19)
07. Conversation (2:26)
08. Threnody (3:54)
09. Conversation (4:12)
10. Caravan (5:40)
11. Conversation (2:33)
12. Otis (4:14)
13. Conversation (1:48)
14. Free Piece (1:34)
15. Conversation (2:06)
16. Bubblehouse (3:24)
Rec.: July 7, 2003.
 
 
Лог создания рипа
Exact Audio Copy V1.0 beta 3 from 29. August 2011
EAC extraction logfile from 19. January 2013, 14:53
John Medeski / Marian McPartland's Piano Jazz
Used drive : TSSTcorpCDDVDW SH-S203B Adapter: 2 ID: 0
Read mode : Secure
Utilize accurate stream : Yes
Defeat audio cache : Yes
Make use of C2 pointers : No
Read offset correction : 6
Overread into Lead-In and Lead-Out : No
Fill up missing offset samples with silence : Yes
Delete leading and trailing silent blocks : No
Null samples used in CRC calculations : Yes
Used interface : Native Win32 interface for Win NT & 2000
Gap handling : Appended to previous track
Used output format : User Defined Encoder
Selected bitrate : 1024 kBit/s
Quality : High
Add ID3 tag : Yes
Command line compressor : C:\Program Files (x86)\Trader's Little Helper\CmdlineApps\flac.exe
Additional command line options : -8 -V -T "ARTIST=%artist%" -T "TITLE=%title%" -T "ALBUM=%albumtitle%" -T "DATE=%year%" -T "TRACKNUMBER=%tracknr%" -T "GENRE=%genre%" -T "PERFORMER=%albuminterpret%" -T "COMPOSER=%composer%" %haslyrics%--tag-from-file=LYRICS="%lyricsfile%"%haslyrics% -T "ALBUMARTIST=%albumartist%" -T "DISCNUMBER=%cdnumber%" -T "TOTALDISCS=%totalcds%" -T "TOTALTRACKS=%numtracks%" -T "COMMENT=%comment%" %source% -o %dest%
TOC of the extracted CD
Track | Start | Length | Start sector | End sector
---------------------------------------------------------
1 | 0:00.00 | 4:02.26 | 0 | 18175
2 | 4:02.26 | 2:52.27 | 18176 | 31102
3 | 6:54.53 | 3:25.46 | 31103 | 46523
4 | 10:20.24 | 4:24.06 | 46524 | 66329
5 | 14:44.30 | 2:57.48 | 66330 | 79652
6 | 17:42.03 | 3:19.04 | 79653 | 94581
7 | 21:01.07 | 2:25.40 | 94582 | 105496
8 | 23:26.47 | 3:54.10 | 105497 | 123056
9 | 27:20.57 | 4:11.61 | 123057 | 141942
10 | 31:32.43 | 5:40.28 | 141943 | 167470
11 | 37:12.71 | 2:32.69 | 167471 | 178939
12 | 39:45.65 | 4:13.53 | 178940 | 197967
13 | 43:59.43 | 1:47.48 | 197968 | 206040
14 | 45:47.16 | 1:34.15 | 206041 | 213105
15 | 47:21.31 | 2:06.28 | 213106 | 222583
16 | 49:27.59 | 3:23.70 | 222584 | 237878
Track 1
Filename C:\Users\Win7\Desktop\John Medeski -Marian McPartland 's Piano Jazz\01 Conversation (1).wav
Pre-gap length 0:00:02.00
Peak level 96.5 %
Extraction speed 3.5 X
Track quality 99.9 %
Copy CRC 25F55C33
Accurately ripped (confidence 2) [D99345BA] (AR v1)
Copy OK
Track 2
Filename C:\Users\Win7\Desktop\John Medeski -Marian McPartland 's Piano Jazz\02 Ba-Lue Bolivar Ba-Lues Are.wav
Peak level 90.6 %
Extraction speed 4.4 X
Track quality 100.0 %
Copy CRC 5E8E30BF
Accurately ripped (confidence 2) [9533B335] (AR v1)
Copy OK
Track 3
Filename C:\Users\Win7\Desktop\John Medeski -Marian McPartland 's Piano Jazz\03 Conversation (2).wav
Peak level 96.6 %
Extraction speed 4.9 X
Track quality 100.0 %
Copy CRC 78D63588
Accurately ripped (confidence 2) [04130BCC] (AR v1)
Copy OK
Track 4
Filename C:\Users\Win7\Desktop\John Medeski -Marian McPartland 's Piano Jazz\04 Out of This World.wav
Peak level 85.1 %
Extraction speed 5.5 X
Track quality 100.0 %
Copy CRC 89678531
Accurately ripped (confidence 2) [4326B7FA] (AR v1)
Copy OK
Track 5
Filename C:\Users\Win7\Desktop\John Medeski -Marian McPartland 's Piano Jazz\05 Conversation (3).wav
Peak level 96.5 %
Extraction speed 4.3 X
Track quality 99.9 %
Copy CRC EA655AFC
Accurately ripped (confidence 2) [EC7C873B] (AR v1)
Copy OK
Track 6
Filename C:\Users\Win7\Desktop\John Medeski -Marian McPartland 's Piano Jazz\06 Bemsha Swing.wav
Peak level 61.2 %
Extraction speed 5.7 X
Track quality 100.0 %
Copy CRC 9F3F8DC3
Accurately ripped (confidence 2) [F63FDB5B] (AR v1)
Copy OK
Track 7
Filename C:\Users\Win7\Desktop\John Medeski -Marian McPartland 's Piano Jazz\07 Conversation (4).wav
Peak level 53.0 %
Extraction speed 5.7 X
Track quality 100.0 %
Copy CRC 4E0D8FA3
Accurately ripped (confidence 2) [311240D6] (AR v1)
Copy OK
Track 8
Filename C:\Users\Win7\Desktop\John Medeski -Marian McPartland 's Piano Jazz\08 Threnody.wav
Peak level 89.8 %
Extraction speed 6.4 X
Track quality 100.0 %
Copy CRC 2BFD7334
Accurately ripped (confidence 2) [B3E9871B] (AR v1)
Copy OK
Track 9
Filename C:\Users\Win7\Desktop\John Medeski -Marian McPartland 's Piano Jazz\09 Conversation (5).wav
Peak level 96.5 %
Extraction speed 6.8 X
Track quality 100.0 %
Copy CRC 9D112B6E
Accurately ripped (confidence 2) [CB8D4DE3] (AR v1)
Copy OK
Track 10
Filename C:\Users\Win7\Desktop\John Medeski -Marian McPartland 's Piano Jazz\10 Caravan.wav
Peak level 85.3 %
Extraction speed 7.3 X
Track quality 100.0 %
Copy CRC A0FC32C0
Accurately ripped (confidence 2) [3CC7210B] (AR v1)
Copy OK
Track 11
Filename C:\Users\Win7\Desktop\John Medeski -Marian McPartland 's Piano Jazz\11 Conversation (6).wav
Peak level 96.5 %
Extraction speed 6.8 X
Track quality 100.0 %
Copy CRC C1B32F67
Accurately ripped (confidence 2) [6522F50E] (AR v1)
Copy OK
Track 12
Filename C:\Users\Win7\Desktop\John Medeski -Marian McPartland 's Piano Jazz\12 Otis.wav
Peak level 48.6 %
Extraction speed 7.6 X
Track quality 100.0 %
Copy CRC 61620F5A
Accurately ripped (confidence 2) [64503156] (AR v1)
Copy OK
Track 13
Filename C:\Users\Win7\Desktop\John Medeski -Marian McPartland 's Piano Jazz\13 Conversation (7).wav
Peak level 96.5 %
Extraction speed 6.6 X
Track quality 100.0 %
Copy CRC 1AADEAC6
Accurately ripped (confidence 2) [0D74FC46] (AR v1)
Copy OK
Track 14
Filename C:\Users\Win7\Desktop\John Medeski -Marian McPartland 's Piano Jazz\14 Free Piece.wav
Peak level 95.8 %
Extraction speed 6.4 X
Track quality 100.0 %
Copy CRC 3E29090D
Accurately ripped (confidence 2) [B646981D] (AR v1)
Copy OK
Track 15
Filename C:\Users\Win7\Desktop\John Medeski -Marian McPartland 's Piano Jazz\15 Conversation (8).wav
Peak level 96.5 %
Extraction speed 7.1 X
Track quality 100.0 %
Copy CRC ECFF3F98
Accurately ripped (confidence 2) [86F25171] (AR v1)
Copy OK
Track 16
Filename C:\Users\Win7\Desktop\John Medeski -Marian McPartland 's Piano Jazz\16 Bubblehouse.wav
Peak level 96.5 %
Extraction speed 7.9 X
Track quality 100.0 %
Copy CRC 75D4BE85
Accurately ripped (confidence 2) [49FAC240] (AR v1)
Copy OK
All tracks accurately ripped
No errors occurred
End of status report
---- CUETools DB Plugin V2.1.3
[CTDB TOCID: dR3NxA0aytv_LtCuuXpXElf39A4-] found, Submit result: already submitted
[9f6e6063] (1/1) Accurately ripped
 
Содержание индексной карты (.CUE)
REM GENRE Jazz
REM DATE 2006
REM DISCID EB0C6310
REM COMMENT "ExactAudioCopy v1.0b3"
PERFORMER "Marian McPartland's Piano Jazz"
TITLE "John Medeski"
FILE "01. Conversation.flac" WAVE
TRACK 01 AUDIO
INDEX 01 00:00:00
FILE "02. Ba-Lue Bolivar Ba-Lues Are.flac" WAVE
TRACK 02 AUDIO
INDEX 01 00:00:00
FILE "03. Conversation.flac" WAVE
TRACK 03 AUDIO
INDEX 01 00:00:00
FILE "04. Out of This World.flac" WAVE
TRACK 04 AUDIO
INDEX 01 00:00:00
FILE "05. Conversation.flac" WAVE
TRACK 05 AUDIO
INDEX 01 00:00:00
FILE "06. Bemsha Swing.flac" WAVE
TRACK 06 AUDIO
INDEX 01 00:00:00
FILE "07. Conversation.flac" WAVE
TRACK 07 AUDIO
INDEX 01 00:00:00
FILE "08. Threnody.flac" WAVE
TRACK 08 AUDIO
INDEX 01 00:00:00
FILE "09. Conversation.flac" WAVE
TRACK 09 AUDIO
INDEX 01 00:00:00
FILE "10. Caravan.flac" WAVE
TRACK 10 AUDIO
INDEX 01 00:00:00
FILE "11. Conversation.flac" WAVE
TRACK 11 AUDIO
INDEX 01 00:00:00
FILE "12. Otis.flac" WAVE
TRACK 12 AUDIO
INDEX 01 00:00:00
FILE "13. Conversation.flac" WAVE
TRACK 13 AUDIO
INDEX 01 00:00:00
FILE "14. Free Piece.flac" WAVE
TRACK 14 AUDIO
INDEX 01 00:00:00
FILE "15. Conversation.flac" WAVE
TRACK 15 AUDIO
INDEX 01 00:00:00
FILE "16. Bubblehouse.flac" WAVE
TRACK 16 AUDIO
INDEX 01 00:00:00
 
Лог проверки качества
AUDIOCHECKER v2.0 beta (build 457) - by Dester - opdester@freemail.hu
~~~~~~~~~~~~~~~~~~~~~~~~~~~~~~~~~~
-=== DO NOT EDIT THIS FILE! ===-
Path: ...\2003. Marian McPartland's Piano Jazz - John Medeski
01 -=- 01. Conversation.flac -=- CDDA (100%)
02 -=- 02. Ba-Lue Bolivar Ba-Lues Are.flac -=- CDDA (100%)
03 -=- 03. Conversation.flac -=- CDDA (100%)
04 -=- 04. Out Of This World.flac -=- CDDA (100%)
05 -=- 05. Conversation.flac -=- CDDA (100%)
06 -=- 06. Bemsha Swing.flac -=- CDDA (100%)
07 -=- 07. Conversation.flac -=- CDDA (100%)
08 -=- 08. Threnody.flac -=- CDDA (100%)
09 -=- 09. Conversation.flac -=- CDDA (100%)
10 -=- 10. Caravan.flac -=- CDDA (100%)
11 -=- 11. Conversation.flac -=- CDDA (100%)
12 -=- 12. Otis.flac -=- CDDA (100%)
13 -=- 13. Conversation.flac -=- CDDA (100%)
14 -=- 14. Free Piece.flac -=- CDDA (100%)
15 -=- 15. Conversation.flac -=- CDDA (100%)
16 -=- 16. Bubblehouse.flac -=- CDDA (100%)
Summary 100,00% CDDA
206908852
 
CUETools log
[CUETools log; Date: 21.01.2013 11:32:01; Version: 2.0.9]
[CTDB TOCID: dR3NxA0aytv_LtCuuXpXElf39A4-] found.
[ CTDBID ] Status
[9f6e6063] (1/1) Accurately ripped
[AccurateRip ID: 002083a6-0183b147-eb0c6310] found.
Track [ CRC ] Status
01 [d99345ba] (2/2) Accurately ripped
02 [9533b335] (2/2) Accurately ripped
03 [04130bcc] (2/2) Accurately ripped
04 [4326b7fa] (2/2) Accurately ripped
05 [ec7c873b] (2/2) Accurately ripped
06 [f63fdb5b] (2/2) Accurately ripped
07 [311240d6] (2/2) Accurately ripped
08 [b3e9871b] (2/2) Accurately ripped
09 [cb8d4de3] (2/2) Accurately ripped
10 [3cc7210b] (2/2) Accurately ripped
11 [6522f50e] (2/2) Accurately ripped
12 [64503156] (2/2) Accurately ripped
13 [0d74fc46] (2/2) Accurately ripped
14 [b646981d] (2/2) Accurately ripped
15 [86f25171] (2/2) Accurately ripped
16 [49fac240] (2/2) Accurately ripped
Track Peak [ CRC32 ] [W/O NULL] [ LOG ]
-- 96,6 [0966ABA8] [D80F4260]
01 96,5 [25F55C33] [96161DA4] CRC32
02 90,6 [5E8E30BF] [4F7E6097] CRC32
03 96,6 [78D63588] [14D90ADC] CRC32
04 85,1 [89678531] [951DBC51] CRC32
05 96,5 [EA655AFC] [5BBCDFAB] CRC32
06 61,2 [9F3F8DC3] [FEBAE2B5] CRC32
07 53,0 [4E0D8FA3] [7EEECB67] CRC32
08 89,8 [2BFD7334] [AE51EDE8] CRC32
09 96,5 [9D112B6E] [A1F1921F] CRC32
10 85,3 [A0FC32C0] [97446281] CRC32
11 96,5 [C1B32F67] [CE20B74E] CRC32
12 48,6 [61620F5A] [8A4961C4] CRC32
13 96,5 [1AADEAC6] [B8600B8E] CRC32
14 95,8 [3E29090D] [9BD90F7F] CRC32
15 96,5 [ECFF3F98] [42A5E254] CRC32
16 96,5 [75D4BE85] [304B6F23] CRC32
Any questions -> support@pro-jazz.com. По всем вопросам пишите -> support@pro-jazz.com
08:10
201
Нет комментариев. Ваш будет первым!