Вы используете незарегистрированную версию компонента "Вкладки"!

Поиск

(Free Jazz, Free Improvisation) Ken Filiano / Steve Adams - The Other Side Of This - 2006, FLAC (tracks+.cue), lossless

(Free Jazz, Free Improvisation) Ken Filiano / Steve Adams - The Other Side Of This - 2006, FLAC (tracks+.cue), lossless
Треклист:
Ken Filiano, Steve Adams / The Other Side Of This
Жанр: Free Jazz, Free Improvisation
Страна-производитель диска: Portugal
Год издания: 2006
Издатель (лейбл): Clean Feed
Номер по каталогу: CF058CD
Аудиокодек: FLAC (*.flac)
Тип рипа: tracks+.cue
Битрейт аудио: lossless
Продолжительность: 59:56
Источник (релизер): whatcd
Наличие сканов в содержимом раздачи: нет
Треклист:
1 Exoid 4:09
2 Kleesh 4:37
3 Tinver 1:51
4 Rumon 7:26
5 Senfui 5:45
6 Yowns 8:52
7 Mauhn 6:21
8 Ingope 3:49
9 Yataph 3:39
10 Droove 7:03
11 Larmin 3:01
12 Ossue 3:18
 
Лог создания рипа
X Lossless Decoder version 20121222 (142.2)
XLD extraction logfile from 2013-01-13 22:57:00 +0400
Ken Filiano, Steve Adams / The Other Side of This
Used drive : HL-DT-ST DVDRW GX30N (revision RP09)
Media type : Pressed CD
Ripper mode : XLD Secure Ripper
Disable audio cache : OK for the drive with a cache less than 1375KiB
Make use of C2 pointers : NO
Read offset correction : 6
Max retry count : 20
Gap status : Analyzed, Appended
TOC of the extracted CD
Track | Start | Length | Start sector | End sector
---------------------------------------------------------
1 | 00:00:00 | 04:09:56 | 0 | 18730
2 | 04:09:56 | 04:37:10 | 18731 | 39515
3 | 08:46:66 | 01:51:61 | 39516 | 47901
4 | 10:38:52 | 07:25:74 | 47902 | 81350
5 | 18:04:51 | 05:45:25 | 81351 | 107250
6 | 23:50:01 | 08:52:25 | 107251 | 147175
7 | 32:42:26 | 06:21:18 | 147176 | 175768
8 | 39:03:44 | 03:49:31 | 175769 | 192974
9 | 42:53:00 | 03:39:28 | 192975 | 209427
10 | 46:32:28 | 07:03:51 | 209428 | 241203
11 | 53:36:04 | 03:01:21 | 241204 | 254799
12 | 56:37:25 | 03:18:57 | 254800 | 269706
AccurateRip Summary
Disc not found in AccurateRip DB.
All Tracks
Album gain : -4.99 dB
Peak : 0.988770
Statistics
Read error : 0
Jitter error (maybe fixed) : 0
Retry sector count : 0
Damaged sector count : 0
Track 01
Filename : /Users/anch/Music/FLAC/Ken Filiano, Steve Adams - 2006 - The Other Side of This [FLAC]/01 - Exoid.flac
/Users/anch/Music/FLAC/Ken Filiano, Steve Adams - 2006 - The Other Side of This [MP3 320]/01 - Exoid.mp3
/Users/anch/Music/FLAC/Ken Filiano, Steve Adams - 2006 - The Other Side of This [MP3 V0]/01 - Exoid.mp3
Pre-gap length : 00:02:00
Track gain : -4.11 dB
Peak : 0.988739
CRC32 hash (test run) : 1A489D64
CRC32 hash : 1A489D64
CRC32 hash (skip zero) : F7D90BF3
AccurateRip v1 signature : C6BE1090
AccurateRip v2 signature : BF85BB89
->Track not present in AccurateRip database.
Statistics
Read error : 0
Jitter error (maybe fixed) : 0
Retry sector count : 0
Damaged sector count : 0
Track 02
Filename : /Users/anch/Music/FLAC/Ken Filiano, Steve Adams - 2006 - The Other Side of This [FLAC]/02 - Kleesh.flac
/Users/anch/Music/FLAC/Ken Filiano, Steve Adams - 2006 - The Other Side of This [MP3 320]/02 - Kleesh.mp3
/Users/anch/Music/FLAC/Ken Filiano, Steve Adams - 2006 - The Other Side of This [MP3 V0]/02 - Kleesh.mp3
Pre-gap length : 00:02:00
Track gain : -3.48 dB
Peak : 0.988647
CRC32 hash (test run) : 3E88B7DB
CRC32 hash : 3E88B7DB
CRC32 hash (skip zero) : F6455D94
AccurateRip v1 signature : C44600DC
AccurateRip v2 signature : 236A981F
->Track not present in AccurateRip database.
Statistics
Read error : 0
Jitter error (maybe fixed) : 0
Retry sector count : 0
Damaged sector count : 0
Track 03
Filename : /Users/anch/Music/FLAC/Ken Filiano, Steve Adams - 2006 - The Other Side of This [FLAC]/03 - Tinver.flac
/Users/anch/Music/FLAC/Ken Filiano, Steve Adams - 2006 - The Other Side of This [MP3 320]/03 - Tinver.mp3
/Users/anch/Music/FLAC/Ken Filiano, Steve Adams - 2006 - The Other Side of This [MP3 V0]/03 - Tinver.mp3
Pre-gap length : 00:02:00
Track gain : 1.06 dB
Peak : 0.515900
CRC32 hash (test run) : E248520A
CRC32 hash : E248520A
CRC32 hash (skip zero) : 94190FC6
AccurateRip v1 signature : 6918A981
AccurateRip v2 signature : 81B020B3
->Track not present in AccurateRip database.
Statistics
Read error : 0
Jitter error (maybe fixed) : 0
Retry sector count : 0
Damaged sector count : 0
Track 04
Filename : /Users/anch/Music/FLAC/Ken Filiano, Steve Adams - 2006 - The Other Side of This [FLAC]/04 - Rumon.flac
/Users/anch/Music/FLAC/Ken Filiano, Steve Adams - 2006 - The Other Side of This [MP3 320]/04 - Rumon.mp3
/Users/anch/Music/FLAC/Ken Filiano, Steve Adams - 2006 - The Other Side of This [MP3 V0]/04 - Rumon.mp3
Pre-gap length : 00:02:00
Track gain : -0.10 dB
Peak : 0.988556
CRC32 hash (test run) : 62380DFF
CRC32 hash : 62380DFF
CRC32 hash (skip zero) : C75E2184
AccurateRip v1 signature : 11C41031
AccurateRip v2 signature : 9267B705
->Track not present in AccurateRip database.
Statistics
Read error : 0
Jitter error (maybe fixed) : 0
Retry sector count : 0
Damaged sector count : 0
Track 05
Filename : /Users/anch/Music/FLAC/Ken Filiano, Steve Adams - 2006 - The Other Side of This [FLAC]/05 - Senfui.flac
/Users/anch/Music/FLAC/Ken Filiano, Steve Adams - 2006 - The Other Side of This [MP3 320]/05 - Senfui.mp3
/Users/anch/Music/FLAC/Ken Filiano, Steve Adams - 2006 - The Other Side of This [MP3 V0]/05 - Senfui.mp3
Pre-gap length : 00:01:00
Track gain : -0.63 dB
Peak : 0.988617
CRC32 hash (test run) : 5CBE20A8
CRC32 hash : 5CBE20A8
CRC32 hash (skip zero) : 4A6DBA20
AccurateRip v1 signature : 1A7E6F4E
AccurateRip v2 signature : 55F67307
->Track not present in AccurateRip database.
Statistics
Read error : 0
Jitter error (maybe fixed) : 0
Retry sector count : 0
Damaged sector count : 0
Track 06
Filename : /Users/anch/Music/FLAC/Ken Filiano, Steve Adams - 2006 - The Other Side of This [FLAC]/06 - Yowns.flac
/Users/anch/Music/FLAC/Ken Filiano, Steve Adams - 2006 - The Other Side of This [MP3 320]/06 - Yowns.mp3
/Users/anch/Music/FLAC/Ken Filiano, Steve Adams - 2006 - The Other Side of This [MP3 V0]/06 - Yowns.mp3
Pre-gap length : 00:02:00
Track gain : -7.33 dB
Peak : 0.988770
CRC32 hash (test run) : 8A562F18
CRC32 hash : 8A562F18
CRC32 hash (skip zero) : 8B5BBEEF
AccurateRip v1 signature : 6C98F35A
AccurateRip v2 signature : 1D634E42
->Track not present in AccurateRip database.
Statistics
Read error : 0
Jitter error (maybe fixed) : 0
Retry sector count : 0
Damaged sector count : 0
Track 07
Filename : /Users/anch/Music/FLAC/Ken Filiano, Steve Adams - 2006 - The Other Side of This [FLAC]/07 - Mauhn.flac
/Users/anch/Music/FLAC/Ken Filiano, Steve Adams - 2006 - The Other Side of This [MP3 320]/07 - Mauhn.mp3
/Users/anch/Music/FLAC/Ken Filiano, Steve Adams - 2006 - The Other Side of This [MP3 V0]/07 - Mauhn.mp3
Pre-gap length : 00:02:00
Track gain : -3.86 dB
Peak : 0.845093
CRC32 hash (test run) : 03A7A806
CRC32 hash : 03A7A806
CRC32 hash (skip zero) : 228B2177
AccurateRip v1 signature : D043AF8F
AccurateRip v2 signature : B250E6C9
->Track not present in AccurateRip database.
Statistics
Read error : 0
Jitter error (maybe fixed) : 0
Retry sector count : 0
Damaged sector count : 0
Track 08
Filename : /Users/anch/Music/FLAC/Ken Filiano, Steve Adams - 2006 - The Other Side of This [FLAC]/08 - Ingope.flac
/Users/anch/Music/FLAC/Ken Filiano, Steve Adams - 2006 - The Other Side of This [MP3 320]/08 - Ingope.mp3
/Users/anch/Music/FLAC/Ken Filiano, Steve Adams - 2006 - The Other Side of This [MP3 V0]/08 - Ingope.mp3
Pre-gap length : 00:02:00
Track gain : -5.24 dB
Peak : 0.988739
CRC32 hash (test run) : A2D91C6F
CRC32 hash : A2D91C6F
CRC32 hash (skip zero) : A7A734F6
AccurateRip v1 signature : F1CF1074
AccurateRip v2 signature : 6831B20E
->Track not present in AccurateRip database.
Statistics
Read error : 0
Jitter error (maybe fixed) : 0
Retry sector count : 0
Damaged sector count : 0
Track 09
Filename : /Users/anch/Music/FLAC/Ken Filiano, Steve Adams - 2006 - The Other Side of This [FLAC]/09 - Yataph.flac
/Users/anch/Music/FLAC/Ken Filiano, Steve Adams - 2006 - The Other Side of This [MP3 320]/09 - Yataph.mp3
/Users/anch/Music/FLAC/Ken Filiano, Steve Adams - 2006 - The Other Side of This [MP3 V0]/09 - Yataph.mp3
Pre-gap length : 00:02:00
Track gain : 1.25 dB
Peak : 0.735229
CRC32 hash (test run) : 42456391
CRC32 hash : 42456391
CRC32 hash (skip zero) : 711A0D9E
AccurateRip v1 signature : 112248CE
AccurateRip v2 signature : 0294546D
->Track not present in AccurateRip database.
Statistics
Read error : 0
Jitter error (maybe fixed) : 0
Retry sector count : 0
Damaged sector count : 0
Track 10
Filename : /Users/anch/Music/FLAC/Ken Filiano, Steve Adams - 2006 - The Other Side of This [FLAC]/10 - Droove.flac
/Users/anch/Music/FLAC/Ken Filiano, Steve Adams - 2006 - The Other Side of This [MP3 320]/10 - Droove.mp3
/Users/anch/Music/FLAC/Ken Filiano, Steve Adams - 2006 - The Other Side of This [MP3 V0]/10 - Droove.mp3
Track gain : -5.04 dB
Peak : 0.988770
CRC32 hash (test run) : FB0B1EE8
CRC32 hash : FB0B1EE8
CRC32 hash (skip zero) : AF95CF89
AccurateRip v1 signature : D7368E87
AccurateRip v2 signature : 69B5F7CE
->Track not present in AccurateRip database.
Statistics
Read error : 0
Jitter error (maybe fixed) : 0
Retry sector count : 0
Damaged sector count : 0
Track 11
Filename : /Users/anch/Music/FLAC/Ken Filiano, Steve Adams - 2006 - The Other Side of This [FLAC]/11 - Larmin.flac
/Users/anch/Music/FLAC/Ken Filiano, Steve Adams - 2006 - The Other Side of This [MP3 320]/11 - Larmin.mp3
/Users/anch/Music/FLAC/Ken Filiano, Steve Adams - 2006 - The Other Side of This [MP3 V0]/11 - Larmin.mp3
Pre-gap length : 00:03:00
Track gain : -0.11 dB
Peak : 0.866455
CRC32 hash (test run) : B285BF53
CRC32 hash : B285BF53
CRC32 hash (skip zero) : 1D40372E
AccurateRip v1 signature : E127CF76
AccurateRip v2 signature : DB7F9429
->Track not present in AccurateRip database.
Statistics
Read error : 0
Jitter error (maybe fixed) : 0
Retry sector count : 0
Damaged sector count : 0
Track 12
Filename : /Users/anch/Music/FLAC/Ken Filiano, Steve Adams - 2006 - The Other Side of This [FLAC]/12 - Ossue.flac
/Users/anch/Music/FLAC/Ken Filiano, Steve Adams - 2006 - The Other Side of This [MP3 320]/12 - Ossue.mp3
/Users/anch/Music/FLAC/Ken Filiano, Steve Adams - 2006 - The Other Side of This [MP3 V0]/12 - Ossue.mp3
Pre-gap length : 00:01:00
Track gain : 1.55 dB
Peak : 0.988647
CRC32 hash (test run) : B0EDDFB3
CRC32 hash : B0EDDFB3
CRC32 hash (skip zero) : 80005B52
AccurateRip v1 signature : 9276D3EE
AccurateRip v2 signature : D03F7DB2
->Track not present in AccurateRip database.
Statistics
Read error : 0
Jitter error (maybe fixed) : 0
Retry sector count : 0
Damaged sector count : 0
No errors occurred
End of status report
 
Содержание индексной карты (.CUE)
TITLE "The Other Side of This"
PERFORMER "Ken Filiano, Steve Adams"
REM GENRE "Free Jazz"
REM DATE "2006"
REM DISCID AD0E0C0C
REM REPLAYGAIN_ALBUM_GAIN -4.99 dB
REM REPLAYGAIN_ALBUM_PEAK 0.988770
FILE "01 - Exoid.flac" WAVE
TRACK 01 AUDIO
TITLE "Exoid"
PERFORMER "Ken Filiano, Steve Adams"
REM REPLAYGAIN_TRACK_GAIN -4.11 dB
REM REPLAYGAIN_TRACK_PEAK 0.988739
INDEX 01 00:00:00
TRACK 02 AUDIO
TITLE "Kleesh"
PERFORMER "Ken Filiano, Steve Adams"
REM REPLAYGAIN_TRACK_GAIN -3.48 dB
REM REPLAYGAIN_TRACK_PEAK 0.988647
INDEX 00 04:07:56
FILE "02 - Kleesh.flac" WAVE
INDEX 01 00:00:00
TRACK 03 AUDIO
TITLE "Tinver"
PERFORMER "Ken Filiano, Steve Adams"
REM REPLAYGAIN_TRACK_GAIN 1.06 dB
REM REPLAYGAIN_TRACK_PEAK 0.515900
INDEX 00 04:35:10
FILE "03 - Tinver.flac" WAVE
INDEX 01 00:00:00
TRACK 04 AUDIO
TITLE "Rumon"
PERFORMER "Ken Filiano, Steve Adams"
REM REPLAYGAIN_TRACK_GAIN -0.10 dB
REM REPLAYGAIN_TRACK_PEAK 0.988556
INDEX 00 01:49:61
FILE "04 - Rumon.flac" WAVE
INDEX 01 00:00:00
TRACK 05 AUDIO
TITLE "Senfui"
PERFORMER "Ken Filiano, Steve Adams"
REM REPLAYGAIN_TRACK_GAIN -0.63 dB
REM REPLAYGAIN_TRACK_PEAK 0.988617
INDEX 00 07:24:74
FILE "05 - Senfui.flac" WAVE
INDEX 01 00:00:00
TRACK 06 AUDIO
TITLE "Yowns"
PERFORMER "Ken Filiano, Steve Adams"
REM REPLAYGAIN_TRACK_GAIN -7.33 dB
REM REPLAYGAIN_TRACK_PEAK 0.988770
INDEX 00 05:43:25
FILE "06 - Yowns.flac" WAVE
INDEX 01 00:00:00
TRACK 07 AUDIO
TITLE "Mauhn"
PERFORMER "Ken Filiano, Steve Adams"
REM REPLAYGAIN_TRACK_GAIN -3.86 dB
REM REPLAYGAIN_TRACK_PEAK 0.845093
INDEX 00 08:50:25
FILE "07 - Mauhn.flac" WAVE
INDEX 01 00:00:00
TRACK 08 AUDIO
TITLE "Ingope"
PERFORMER "Ken Filiano, Steve Adams"
REM REPLAYGAIN_TRACK_GAIN -5.24 dB
REM REPLAYGAIN_TRACK_PEAK 0.988739
INDEX 00 06:19:18
FILE "08 - Ingope.flac" WAVE
INDEX 01 00:00:00
TRACK 09 AUDIO
TITLE "Yataph"
PERFORMER "Ken Filiano, Steve Adams"
REM REPLAYGAIN_TRACK_GAIN 1.25 dB
REM REPLAYGAIN_TRACK_PEAK 0.735229
INDEX 00 03:47:31
FILE "09 - Yataph.flac" WAVE
INDEX 01 00:00:00
FILE "10 - Droove.flac" WAVE
TRACK 10 AUDIO
TITLE "Droove"
PERFORMER "Ken Filiano, Steve Adams"
REM REPLAYGAIN_TRACK_GAIN -5.04 dB
REM REPLAYGAIN_TRACK_PEAK 0.988770
INDEX 01 00:00:00
TRACK 11 AUDIO
TITLE "Larmin"
PERFORMER "Ken Filiano, Steve Adams"
REM REPLAYGAIN_TRACK_GAIN -0.11 dB
REM REPLAYGAIN_TRACK_PEAK 0.866455
INDEX 00 07:00:51
FILE "11 - Larmin.flac" WAVE
INDEX 01 00:00:00
TRACK 12 AUDIO
TITLE "Ossue"
PERFORMER "Ken Filiano, Steve Adams"
REM REPLAYGAIN_TRACK_GAIN 1.55 dB
REM REPLAYGAIN_TRACK_PEAK 0.988647
INDEX 00 03:00:21
FILE "12 - Ossue.flac" WAVE
INDEX 01 00:00:00
 
Состав
Double Bass, Electronics – Ken Filiano
Saxophone, Flute – Steve Adams
Any questions -> support@pro-jazz.com. По всем вопросам пишите -> support@pro-jazz.com
08:08
150
Нет комментариев. Ваш будет первым!