Вы используете незарегистрированную версию компонента "Вкладки"!

Поиск

(Free Improvisation) Eric Boeren 4tet (Michael Moore, Wilbert de Joode, Paul Lovens) - Song For Tracy The Turtle: Live At Jazz Brugge 2004 - 2010, FLAC (tracks+.cue), lossless

(Free Improvisation) Eric Boeren 4tet (Michael Moore, Wilbert de Joode, Paul Lovens) - Song For Tracy The Turtle: Live At Jazz Brugge 2004 - 2010, FLAC (tracks+.cue), lossless
Треклист:
Eric Boeren 4tet / Song For Tracy The Turtle: Live At Jazz Brugge 2004
Жанр: Free Improvisation
Страна-производитель диска: Portugal
Год издания: 2010
Издатель (лейбл): Clean Feed
Номер по каталогу: CF186CD
Аудиокодек: FLAC (*.flac)
Тип рипа: tracks+.cue
Битрейт аудио: lossless
Продолжительность: 52:40
Источник (релизер): whatcd
Наличие сканов в содержимом раздачи: нет
Треклист:
1 Song For Tracy The Turtle 10:40
2 A Fuzzphony 5:39
3 Mr & Mrs People 5:24
4 Charmes 7:00
5 Free 2:57
6 Soft Nose 5:02
7 Memo 1:13
8 Memories Of You 2:46
9 Moon Inhabitants 2:56
10 Squirrel Feet/ The Legend Of Bebop 10:00
 
Лог создания рипа
X Lossless Decoder version 20121222 (142.2)
XLD extraction logfile from 2013-01-13 13:16:47 +0400
Eric Boeren 4tet / Song for Tracy the Turtle (Live in Brugge 2004)
Used drive : HL-DT-ST DVDRW GX30N (revision RP09)
Media type : Pressed CD
Ripper mode : XLD Secure Ripper
Disable audio cache : OK for the drive with a cache less than 1375KiB
Make use of C2 pointers : NO
Read offset correction : 6
Max retry count : 20
Gap status : Analyzed, Appended
TOC of the extracted CD
Track | Start | Length | Start sector | End sector
---------------------------------------------------------
1 | 00:00:00 | 10:40:15 | 0 | 48014
2 | 10:40:15 | 05:39:22 | 48015 | 73461
3 | 16:19:37 | 05:24:10 | 73462 | 97771
4 | 21:43:47 | 07:00:56 | 97772 | 129327
5 | 28:44:28 | 02:57:15 | 129328 | 142617
6 | 31:41:43 | 05:02:42 | 142618 | 165309
7 | 36:44:10 | 01:13:24 | 165310 | 170808
8 | 37:57:34 | 02:46:45 | 170809 | 183303
9 | 40:44:04 | 02:56:20 | 183304 | 196523
10 | 43:40:24 | 10:00:24 | 196524 | 241547
AccurateRip Summary (DiscID: 00161af2-00a7ee3b-800c940a)
Track 01 : OK (v1, confidence 2/2)
Track 02 : OK (v1, confidence 2/2)
Track 03 : OK (v1, confidence 2/2)
Track 04 : OK (v1, confidence 2/2)
Track 05 : OK (v1, confidence 2/2)
Track 06 : OK (v1, confidence 2/2)
Track 07 : OK (v1, confidence 2/2)
Track 08 : OK (v1, confidence 2/2)
Track 09 : OK (v1, confidence 2/2)
Track 10 : OK (v1, confidence 2/2)
->All tracks accurately ripped.
All Tracks
Album gain : 1.73 dB
Peak : 0.971100
Statistics
Read error : 0
Jitter error (maybe fixed) : 0
Retry sector count : 0
Damaged sector count : 0
Track 01
Filename : /Users/anch/Music/FLAC/Eric Boeren 4tet - 2010 - Song for Tracy the Turtle (Live in Brugge 2004) [FLAC]/01 - Song for Tracy the Turtle.flac
/Users/anch/Music/FLAC/Eric Boeren 4tet - 2010 - Song for Tracy the Turtle (Live in Brugge 2004) [MP3 320]/01 - Song for Tracy the Turtle.mp3
/Users/anch/Music/FLAC/Eric Boeren 4tet - 2010 - Song for Tracy the Turtle (Live in Brugge 2004) [MP3 V0]/01 - Song for Tracy the Turtle.mp3
Pre-gap length : 00:02:00
Track gain : 2.51 dB
Peak : 0.971100
CRC32 hash (test run) : F9076F1B
CRC32 hash : F9076F1B
CRC32 hash (skip zero) : A1852193
AccurateRip v1 signature : 2CCD2ADD
AccurateRip v2 signature : 8C4E497F
->Accurately ripped (v1, confidence 2/2)
Statistics
Read error : 0
Jitter error (maybe fixed) : 0
Retry sector count : 0
Damaged sector count : 0
Track 02
Filename : /Users/anch/Music/FLAC/Eric Boeren 4tet - 2010 - Song for Tracy the Turtle (Live in Brugge 2004) [FLAC]/02 - A Fuzzphony.flac
/Users/anch/Music/FLAC/Eric Boeren 4tet - 2010 - Song for Tracy the Turtle (Live in Brugge 2004) [MP3 320]/02 - A Fuzzphony.mp3
/Users/anch/Music/FLAC/Eric Boeren 4tet - 2010 - Song for Tracy the Turtle (Live in Brugge 2004) [MP3 V0]/02 - A Fuzzphony.mp3
Track gain : -1.10 dB
Peak : 0.971039
CRC32 hash (test run) : 386850DE
CRC32 hash : 386850DE
CRC32 hash (skip zero) : 7BDE5D60
AccurateRip v1 signature : C399CBC3
AccurateRip v2 signature : D590BA7F
->Accurately ripped (v1, confidence 2/2)
Statistics
Read error : 0
Jitter error (maybe fixed) : 0
Retry sector count : 0
Damaged sector count : 0
Track 03
Filename : /Users/anch/Music/FLAC/Eric Boeren 4tet - 2010 - Song for Tracy the Turtle (Live in Brugge 2004) [FLAC]/03 - Mr & Mrs People.flac
/Users/anch/Music/FLAC/Eric Boeren 4tet - 2010 - Song for Tracy the Turtle (Live in Brugge 2004) [MP3 320]/03 - Mr & Mrs People.mp3
/Users/anch/Music/FLAC/Eric Boeren 4tet - 2010 - Song for Tracy the Turtle (Live in Brugge 2004) [MP3 V0]/03 - Mr & Mrs People.mp3
Track gain : 1.12 dB
Peak : 0.971100
CRC32 hash (test run) : 9AD495D5
CRC32 hash : 9AD495D5
CRC32 hash (skip zero) : CCB4E69E
AccurateRip v1 signature : 0E3F61D0
AccurateRip v2 signature : 4480667E
->Accurately ripped (v1, confidence 2/2)
Statistics
Read error : 0
Jitter error (maybe fixed) : 0
Retry sector count : 0
Damaged sector count : 0
Track 04
Filename : /Users/anch/Music/FLAC/Eric Boeren 4tet - 2010 - Song for Tracy the Turtle (Live in Brugge 2004) [FLAC]/04 - Charmes.flac
/Users/anch/Music/FLAC/Eric Boeren 4tet - 2010 - Song for Tracy the Turtle (Live in Brugge 2004) [MP3 320]/04 - Charmes.mp3
/Users/anch/Music/FLAC/Eric Boeren 4tet - 2010 - Song for Tracy the Turtle (Live in Brugge 2004) [MP3 V0]/04 - Charmes.mp3
Track gain : 3.80 dB
Peak : 0.971100
CRC32 hash (test run) : 83002B96
CRC32 hash : 83002B96
CRC32 hash (skip zero) : E24D9101
AccurateRip v1 signature : 3C7831A9
AccurateRip v2 signature : E6887326
->Accurately ripped (v1, confidence 2/2)
Statistics
Read error : 0
Jitter error (maybe fixed) : 0
Retry sector count : 0
Damaged sector count : 0
Track 05
Filename : /Users/anch/Music/FLAC/Eric Boeren 4tet - 2010 - Song for Tracy the Turtle (Live in Brugge 2004) [FLAC]/05 - Free.flac
/Users/anch/Music/FLAC/Eric Boeren 4tet - 2010 - Song for Tracy the Turtle (Live in Brugge 2004) [MP3 320]/05 - Free.mp3
/Users/anch/Music/FLAC/Eric Boeren 4tet - 2010 - Song for Tracy the Turtle (Live in Brugge 2004) [MP3 V0]/05 - Free.mp3
Track gain : 0.57 dB
Peak : 0.971039
CRC32 hash (test run) : AF3D6A0E
CRC32 hash : AF3D6A0E
CRC32 hash (skip zero) : 30ED7BDD
AccurateRip v1 signature : 12169699
AccurateRip v2 signature : D6C03C5B
->Accurately ripped (v1, confidence 2/2)
Statistics
Read error : 0
Jitter error (maybe fixed) : 0
Retry sector count : 0
Damaged sector count : 0
Track 06
Filename : /Users/anch/Music/FLAC/Eric Boeren 4tet - 2010 - Song for Tracy the Turtle (Live in Brugge 2004) [FLAC]/06 - Soft Nose.flac
/Users/anch/Music/FLAC/Eric Boeren 4tet - 2010 - Song for Tracy the Turtle (Live in Brugge 2004) [MP3 320]/06 - Soft Nose.mp3
/Users/anch/Music/FLAC/Eric Boeren 4tet - 2010 - Song for Tracy the Turtle (Live in Brugge 2004) [MP3 V0]/06 - Soft Nose.mp3
Track gain : 3.54 dB
Peak : 0.971069
CRC32 hash (test run) : 4BA4D70D
CRC32 hash : 4BA4D70D
CRC32 hash (skip zero) : 1CDDCA9D
AccurateRip v1 signature : 29A29CFC
AccurateRip v2 signature : DCDCF320
->Accurately ripped (v1, confidence 2/2)
Statistics
Read error : 0
Jitter error (maybe fixed) : 0
Retry sector count : 0
Damaged sector count : 0
Track 07
Filename : /Users/anch/Music/FLAC/Eric Boeren 4tet - 2010 - Song for Tracy the Turtle (Live in Brugge 2004) [FLAC]/07 - Memo.flac
/Users/anch/Music/FLAC/Eric Boeren 4tet - 2010 - Song for Tracy the Turtle (Live in Brugge 2004) [MP3 320]/07 - Memo.mp3
/Users/anch/Music/FLAC/Eric Boeren 4tet - 2010 - Song for Tracy the Turtle (Live in Brugge 2004) [MP3 V0]/07 - Memo.mp3
Track gain : 12.34 dB
Peak : 0.177612
CRC32 hash (test run) : DEFEF351
CRC32 hash : DEFEF351
CRC32 hash (skip zero) : 5E2C2E9D
AccurateRip v1 signature : F74D01C3
AccurateRip v2 signature : 3E40D41C
->Accurately ripped (v1, confidence 2/2)
Statistics
Read error : 0
Jitter error (maybe fixed) : 0
Retry sector count : 0
Damaged sector count : 0
Track 08
Filename : /Users/anch/Music/FLAC/Eric Boeren 4tet - 2010 - Song for Tracy the Turtle (Live in Brugge 2004) [FLAC]/08 - Memories of You.flac
/Users/anch/Music/FLAC/Eric Boeren 4tet - 2010 - Song for Tracy the Turtle (Live in Brugge 2004) [MP3 320]/08 - Memories of You.mp3
/Users/anch/Music/FLAC/Eric Boeren 4tet - 2010 - Song for Tracy the Turtle (Live in Brugge 2004) [MP3 V0]/08 - Memories of You.mp3
Track gain : 9.61 dB
Peak : 0.444916
CRC32 hash (test run) : 1CF14DD8
CRC32 hash : 1CF14DD8
CRC32 hash (skip zero) : BAAEAA43
AccurateRip v1 signature : 0A443103
AccurateRip v2 signature : 27A03A30
->Accurately ripped (v1, confidence 2/2)
Statistics
Read error : 0
Jitter error (maybe fixed) : 0
Retry sector count : 0
Damaged sector count : 0
Track 09
Filename : /Users/anch/Music/FLAC/Eric Boeren 4tet - 2010 - Song for Tracy the Turtle (Live in Brugge 2004) [FLAC]/09 - Moon Inhabitants.flac
/Users/anch/Music/FLAC/Eric Boeren 4tet - 2010 - Song for Tracy the Turtle (Live in Brugge 2004) [MP3 320]/09 - Moon Inhabitants.mp3
/Users/anch/Music/FLAC/Eric Boeren 4tet - 2010 - Song for Tracy the Turtle (Live in Brugge 2004) [MP3 V0]/09 - Moon Inhabitants.mp3
Track gain : -0.20 dB
Peak : 0.971069
CRC32 hash (test run) : 6E11B44A
CRC32 hash : 6E11B44A
CRC32 hash (skip zero) : B7784189
AccurateRip v1 signature : 2034AF8A
AccurateRip v2 signature : 7D23671F
->Accurately ripped (v1, confidence 2/2)
Statistics
Read error : 0
Jitter error (maybe fixed) : 0
Retry sector count : 0
Damaged sector count : 0
Track 10
Filename : /Users/anch/Music/FLAC/Eric Boeren 4tet - 2010 - Song for Tracy the Turtle (Live in Brugge 2004) [FLAC]/10 - Chune / The Legend Of Bebop.flac
/Users/anch/Music/FLAC/Eric Boeren 4tet - 2010 - Song for Tracy the Turtle (Live in Brugge 2004) [MP3 320]/10 - Chune / The Legend Of Bebop.mp3
/Users/anch/Music/FLAC/Eric Boeren 4tet - 2010 - Song for Tracy the Turtle (Live in Brugge 2004) [MP3 V0]/10 - Chune / The Legend Of Bebop.mp3
Track gain : 3.13 dB
Peak : 0.920563
CRC32 hash (test run) : 68DB5FDA
CRC32 hash : 68DB5FDA
CRC32 hash (skip zero) : 8AA18D40
AccurateRip v1 signature : F7E30FF3
AccurateRip v2 signature : 6D8ED758
->Accurately ripped (v1, confidence 2/2)
Statistics
Read error : 0
Jitter error (maybe fixed) : 0
Retry sector count : 0
Damaged sector count : 0
No errors occurred
End of status report
 
Содержание индексной карты (.CUE)
TITLE "Song for Tracy the Turtle (Live in Brugge 2004)"
PERFORMER "Eric Boeren 4tet"
REM GENRE "Free Jazz"
REM DATE "2010"
REM DISCID 800C940A
REM REPLAYGAIN_ALBUM_GAIN 1.73 dB
REM REPLAYGAIN_ALBUM_PEAK 0.971100
FILE "01 - Song for Tracy the Turtle.flac" WAVE
TRACK 01 AUDIO
TITLE "Song for Tracy the Turtle"
PERFORMER "Eric Boeren 4tet"
ISRC NLFX40800001
REM REPLAYGAIN_TRACK_GAIN 2.51 dB
REM REPLAYGAIN_TRACK_PEAK 0.971100
INDEX 01 00:00:00
FILE "02 - A Fuzzphony.flac" WAVE
TRACK 02 AUDIO
TITLE "A Fuzzphony"
PERFORMER "Eric Boeren 4tet"
ISRC NLFX40800002
REM REPLAYGAIN_TRACK_GAIN -1.10 dB
REM REPLAYGAIN_TRACK_PEAK 0.971039
INDEX 01 00:00:00
FILE "03 - Mr & Mrs People.flac" WAVE
TRACK 03 AUDIO
TITLE "Mr & Mrs People"
PERFORMER "Eric Boeren 4tet"
ISRC NLFX40800003
REM REPLAYGAIN_TRACK_GAIN 1.12 dB
REM REPLAYGAIN_TRACK_PEAK 0.971100
INDEX 01 00:00:00
FILE "04 - Charmes.flac" WAVE
TRACK 04 AUDIO
TITLE "Charmes"
PERFORMER "Eric Boeren 4tet"
ISRC NLFX40800004
REM REPLAYGAIN_TRACK_GAIN 3.80 dB
REM REPLAYGAIN_TRACK_PEAK 0.971100
INDEX 01 00:00:00
FILE "05 - Free.flac" WAVE
TRACK 05 AUDIO
TITLE "Free"
PERFORMER "Eric Boeren 4tet"
ISRC NLFX40800005
REM REPLAYGAIN_TRACK_GAIN 0.57 dB
REM REPLAYGAIN_TRACK_PEAK 0.971039
INDEX 01 00:00:00
FILE "06 - Soft Nose.flac" WAVE
TRACK 06 AUDIO
TITLE "Soft Nose"
PERFORMER "Eric Boeren 4tet"
ISRC NLFX40800006
REM REPLAYGAIN_TRACK_GAIN 3.54 dB
REM REPLAYGAIN_TRACK_PEAK 0.971069
INDEX 01 00:00:00
FILE "07 - Memo.flac" WAVE
TRACK 07 AUDIO
TITLE "Memo"
PERFORMER "Eric Boeren 4tet"
ISRC NLFX40800007
REM REPLAYGAIN_TRACK_GAIN 12.34 dB
REM REPLAYGAIN_TRACK_PEAK 0.177612
INDEX 01 00:00:00
FILE "08 - Memories of You.flac" WAVE
TRACK 08 AUDIO
TITLE "Memories of You"
PERFORMER "Eric Boeren 4tet"
ISRC NLFX40800008
REM REPLAYGAIN_TRACK_GAIN 9.61 dB
REM REPLAYGAIN_TRACK_PEAK 0.444916
INDEX 01 00:00:00
FILE "09 - Moon Inhabitants.flac" WAVE
TRACK 09 AUDIO
TITLE "Moon Inhabitants"
PERFORMER "Eric Boeren 4tet"
ISRC NLFX40800009
REM REPLAYGAIN_TRACK_GAIN -0.20 dB
REM REPLAYGAIN_TRACK_PEAK 0.971069
INDEX 01 00:00:00
FILE "10 - Chune - The Legend Of Bebop.flac" WAVE
TRACK 10 AUDIO
TITLE "Chune / The Legend Of Bebop"
PERFORMER "Eric Boeren 4tet"
ISRC NLFX40800010
REM REPLAYGAIN_TRACK_GAIN 3.13 dB
REM REPLAYGAIN_TRACK_PEAK 0.920563
INDEX 01 00:00:00
 
Состав
Clarinet, Alto Saxophone – Michael Moore
Cornet, Producer – Eric Boeren
Double Bass – Wilbert de Joode
Drums – Paul Lovens
Any questions -> support@pro-jazz.com. По всем вопросам пишите -> support@pro-jazz.com
08:07
172
Нет комментариев. Ваш будет первым!