Вы используете незарегистрированную версию компонента "Вкладки"!

Поиск

(Free Jazz) Oluyemi Thomas & Henry Grimes - The Power Of Light - 2007, FLAC (tracks+.cue), lossless

(Free Jazz) Oluyemi Thomas & Henry Grimes - The Power Of Light - 2007, FLAC (tracks+.cue), lossless
Треклист:
Oluyemi Thomas & Henry Grimes / The Power Of Light
Жанр: Free Jazz
Страна-производитель диска: Poland
Год издания: 2007
Издатель (лейбл): Nottwo
Номер по каталогу: MW 787-2
Аудиокодек: FLAC (*.flac)
Тип рипа: tracks+.cue
Битрейт аудио: lossless
Продолжительность: 60:06
Источник (релизер): CD
Наличие сканов в содержимом раздачи: да
Треклист:
1. Grace For The Race (9:38)
2. Water Of Thine Eternity (4:56)
3. Fractured Flow (9:22)
4. Brothers Telling Song (8:57)
5. Hidden Mystery (7:55)
6. Lightbathers In Soundwaves (5:37)
7. Dance Of The Planets Spirits Abounding (8:42)
8. Tabernacle (5:01)
http://www.nottwo.com/PelnaPlyta.php?Id=323&W=0
 
Лог создания рипа
Exact Audio Copy V1.0 beta 2 from 29. April 2011
EAC extraction logfile from 7. April 2013, 17:24
Oluyemi Thomas & Henry Grimes / The Power Of Light
Used drive : Optiarc DVD RW AD-5280S Adapter: 1 ID: 1
Read mode : Secure
Utilize accurate stream : Yes
Defeat audio cache : Yes
Make use of C2 pointers : No
Read offset correction : 48
Overread into Lead-In and Lead-Out : No
Fill up missing offset samples with silence : Yes
Delete leading and trailing silent blocks : No
Null samples used in CRC calculations : Yes
Used interface : Native Win32 interface for Win NT & 2000
Gap handling : Appended to previous track
Used output format : User Defined Encoder
Selected bitrate : 128 kBit/s
Quality : High
Add ID3 tag : No
Command line compressor : C:\Program Files\FLAC\flac.exe
Additional command line options : -V -8 -T "Genre=%genre%" -T "Artist=%artist%" -T "Title=%title%" -T "Album=%albumtitle%" -T "Date=%year%" -T "Tracknumber=%tracknr%" -T "Comment=%comment%" %source%
TOC of the extracted CD
Track | Start | Length | Start sector | End sector
---------------------------------------------------------
1 | 0:55.54 | 9:35.62 | 4179 | 47365
2 | 10:31.41 | 4:55.54 | 47366 | 69544
3 | 15:27.20 | 9:22.01 | 69545 | 111695
4 | 24:49.21 | 8:57.50 | 111696 | 152020
5 | 33:46.71 | 7:54.48 | 152021 | 187618
6 | 41:41.44 | 5:37.01 | 187619 | 212894
7 | 47:18.45 | 8:41.48 | 212895 | 252017
8 | 56:00.18 | 5:01.09 | 252018 | 274601
Track 1
Filename C:\Oluyemi Thomas & Henry Grimes (2007) - The Power Of Light\01 - Grace For The Race.wav
Pre-gap length 0:00:57.54
Peak level 72.0 %
Extraction speed 2.8 X
Track quality 100.0 %
Test CRC 1EBF8F67
Copy CRC 1EBF8F67
Track not present in AccurateRip database
Copy OK
Track 2
Filename C:\Oluyemi Thomas & Henry Grimes (2007) - The Power Of Light\02 - Water Of Thine Eternity.wav
Peak level 52.9 %
Extraction speed 3.1 X
Track quality 100.0 %
Test CRC 576B55BD
Copy CRC 576B55BD
Track not present in AccurateRip database
Copy OK
Track 3
Filename C:\Oluyemi Thomas & Henry Grimes (2007) - The Power Of Light\03 - Fractured Flow.wav
Peak level 52.5 %
Extraction speed 3.7 X
Track quality 100.0 %
Test CRC C026F99E
Copy CRC C026F99E
Track not present in AccurateRip database
Copy OK
Track 4
Filename C:\Oluyemi Thomas & Henry Grimes (2007) - The Power Of Light\04 - Brothers Telling Song.wav
Peak level 69.7 %
Extraction speed 4.2 X
Track quality 100.0 %
Test CRC 3F1FFC6D
Copy CRC 3F1FFC6D
Track not present in AccurateRip database
Copy OK
Track 5
Filename C:\Oluyemi Thomas & Henry Grimes (2007) - The Power Of Light\05 - Hidden Mystery.wav
Peak level 33.4 %
Extraction speed 4.4 X
Track quality 100.0 %
Test CRC C9C985FE
Copy CRC C9C985FE
Track not present in AccurateRip database
Copy OK
Track 6
Filename C:\Oluyemi Thomas & Henry Grimes (2007) - The Power Of Light\06 - Lightbathers In Soundwaves.wav
Peak level 36.3 %
Extraction speed 4.6 X
Track quality 100.0 %
Test CRC 60A8D626
Copy CRC 60A8D626
Track not present in AccurateRip database
Copy OK
Track 7
Filename C:\Oluyemi Thomas & Henry Grimes (2007) - The Power Of Light\07 - Dance Of The Planets, Spirits Abounding.wav
Peak level 80.2 %
Extraction speed 5.1 X
Track quality 100.0 %
Test CRC C44EDDCE
Copy CRC C44EDDCE
Track not present in AccurateRip database
Copy OK
Track 8
Filename C:\Oluyemi Thomas & Henry Grimes (2007) - The Power Of Light\08 - Tabernacle.wav
Peak level 74.8 %
Extraction speed 4.6 X
Track quality 99.9 %
Test CRC 18973115
Copy CRC 18973115
Track not present in AccurateRip database
Copy OK
None of the tracks are present in the AccurateRip database
No errors occurred
End of status report
==== Log checksum D9EC1BEA8CFA009EEED78AC89BC919873CFA51A22CD492519FFFC45F4D825254 ====
 
Содержание индексной карты (.CUE)
REM GENRE Jazz
REM DATE 2007
REM DISCID 6D0E1608
REM COMMENT "ExactAudioCopy v1.0b2"
PERFORMER "Oluyemi Thomas & Henry Grimes"
TITLE "The Power Of Light"
FILE "01 - Grace For The Race.wav" WAVE
TRACK 01 AUDIO
TITLE "Grace For The Race"
PERFORMER "Oluyemi Thomas & Henry Grimes"
PREGAP 00:55:54
INDEX 01 00:00:00
FILE "02 - Water Of Thine Eternity.wav" WAVE
TRACK 02 AUDIO
TITLE "Water Of Thine Eternity"
PERFORMER "Oluyemi Thomas & Henry Grimes"
INDEX 01 00:00:00
FILE "03 - Fractured Flow.wav" WAVE
TRACK 03 AUDIO
TITLE "Fractured Flow"
PERFORMER "Oluyemi Thomas & Henry Grimes"
INDEX 01 00:00:00
FILE "04 - Brothers Telling Song.wav" WAVE
TRACK 04 AUDIO
TITLE "Brothers Telling Song"
PERFORMER "Oluyemi Thomas & Henry Grimes"
INDEX 01 00:00:00
FILE "05 - Hidden Mystery.wav" WAVE
TRACK 05 AUDIO
TITLE "Hidden Mystery"
PERFORMER "Oluyemi Thomas & Henry Grimes"
INDEX 01 00:00:00
FILE "06 - Lightbathers In Soundwaves.wav" WAVE
TRACK 06 AUDIO
TITLE "Lightbathers In Soundwaves"
PERFORMER "Oluyemi Thomas & Henry Grimes"
INDEX 01 00:00:00
FILE "07 - Dance Of The Planets, Spirits Abounding.wav" WAVE
TRACK 07 AUDIO
TITLE "Dance Of The Planets, Spirits Abounding"
PERFORMER "Oluyemi Thomas & Henry Grimes"
INDEX 01 00:00:00
FILE "08 - Tabernacle.wav" WAVE
TRACK 08 AUDIO
TITLE "Tabernacle "
PERFORMER "Oluyemi Thomas & Henry Grimes"
INDEX 01 00:00:00
 
Доп. информация
Recorded July 1, 2006 at ModernFormations Gallery and Perfomance Space, Pittsburgh, PA USA
 
Об альбоме (сборнике)
Once in a great while, a disc comes along that makes believing in the myths a bit easier. It puts the blues and the rituals of joyous communication beyond the craftily narrow constructs in which many half-hearted academics seek to trap them. Despite a slightly distant recording, this July 2006 concert is an immediate and powerful document of improvised music. More than that, it affirms again the voices of those brave souls, past and present, who dared to make this music what it is, to endow it with such multivalent and beautiful traditions, steeped in the language of victory over oppression. This meeting of veterans blends intuition and craft in a way that makes each player sound larger than life. Linger a while over Oluyemi Thomas’ overtone-drenched clarinet work on “Grace for the Race” for a startling and moving dose of raw humanity - murmurs, moans and outcries that run the emotional gamut. Yes, the blues are invoked, in extraordinary wails as brief as they are poignant. Thomas picks up where Eric Dolphy was tragically forced to leave off, delving deeper into the unconscious, augmenting his arsenal of “exotic” wind instruments with gongs, shakers and what sounds like small bells. If Thomas creates a world, Henry Grimes is the world beneath, rapping propulsion and rock-solid support into inspired technique. He too draws into what John Coltrane has labeled the reservoir from which all musicians drink, blues celebration pervading the opening of “Fractured Flow.” Plucked notes produce wondrously shadowy counterparts an octave or more above as the rhythmic solo builds, the point of most tension topped off by a transcendentally humorous rising bit of arco, a crowning gesture of which only the finest musicians are capable. On “Hidden Mystery,” Grimes’ arco work sounds as if it’s coming from two bassists, so wide are the intervals he’s mastered. As Thomas plays bells, Grimes covers the range of a string quartet, interweaving hushed harmonics with deft precision and exquisite taste. “Hidden Mystery,” demonstrates how well the two musicians’ approaches mesh; as Grimes lays down a spacious and constantly morphing series of patterns, Thomas responds with contrapuntal flute exhortations, the two becoming benevolent gatekeepers of world culture transmitted through the microtone. It’s too bad that the music they play, and the work of similarly intentioned keepers of the flame, are usually not afforded the recognition they deserve. Unfortunately, the truths they tell will go largely unheard amidst more polished and less insightful forays into improvisational rehash. ~ marc medwin, dustedmagazine.com
Recorded live at the Modern Formations Gallery in Pittsburgh, PA on July 1st of 2006. West Coast mystery man and reeds wizard, Oluyemi Thomas, has an ongoing project called Positive Knowledge with his wife & collaboator, Ijeoma Thomas. Each of their six discs is special, the essence of free music and positive knowledge. In the past decade, Oluyemi has also been collaborating with a number of other heavy free- spirited players like Alan Silva, William Parker, Eddie Gale and Sunny Murray. After a 35-year sabbatical, contrabass great, Henry Grimes has returned and is is fine form. Henry has kept pretty busy since his return in 2003, but can only be found on a handful of Cds so far. This duo is a wonderful thing and was well chosen, as each of these players specializes in cosmic spirit music. This disc captures their entire live one hour set, a suite that flows organically from one section to the next. In each section, Oluyemi solos on a different reed and each one is great. In between each solo by Oluyemi, Henry also takes a number of enchanting solos, sometimes with Oluyemi backing on mysterious percussion sounds like gongs, cymbals and hand percussion. Each solo by both of these men is a gem to behold. On Fractured Flow, they erupt intensely with some explosive bass clarinet and burning bowed bass. Oluyemi has a way of reaching deep into himself and talking through his horn. He often sounds as if he is animal talking in its own native language, speaking directly to those who choose to listen. This is a most impressive and free-flowing duo from two giants. ~ nottwo.com
 
Состав
Oluyemi Thomas - bass clarinet, soprano, musette, gong, flute, percussion
Henry Grimes - bass
Any questions -> support@pro-jazz.com. По всем вопросам пишите -> support@pro-jazz.com
10:44
170
Нет комментариев. Ваш будет первым!