Вы используете незарегистрированную версию компонента "Вкладки"!

Поиск

(Avant-Garde Jazz) Sorgen-Rust-Stevens Trio - A Scent in Motion - 2009, FLAC (Tracks +. Cue), lossless

(Avant-Garde Jazz) Sorgen-Rust-Stevens Trio - A Scent in Motion - 2009, FLAC (Tracks +. Cue), lossless
Треклист:
Sorgen-Rust-Stevens Trio / A Scent in Motion
Жанр: Avant-Garde Jazz
Страна-производитель диска: Germany
Год издания: 2009
Издатель (лейбл): KONNEX
Номер по каталогу: KCD 5224
Страна: United States
Аудиокодек: FLAC (*.flac)
Тип рипа:Tracks +. Cue
Битрейт аудио: lossless
Продолжительность: 44:26
Источник (релизер): CD
Наличие сканов в содержимом раздачи: да
Треклист:
Title Play time
1. Sentry 5:36
2. Fairy Tale 3:39
3. Camco 3:20
4. Cpac 6:06
5. Freedom of Choice 3:57
6. Magic Meadow 7:49
7. Starter Set 3:11
8. Something You Said 3:01
9. Spirit Song 7:47
 
Лог создания рипа
Exact Audio Copy V1.0 beta 3 from 29. August 2011
EAC extraction logfile from 12. April 2013, 11:52
Sorgen-Rust-Stevens Trio / A Scent in Motion
Used drive : hp CDDVDW TS-L633N Adapter: 0 ID: 1
Read mode : Secure
Utilize accurate stream : Yes
Defeat audio cache : Yes
Make use of C2 pointers : No
Read offset correction : 6
Overread into Lead-In and Lead-Out : No
Fill up missing offset samples with silence : Yes
Delete leading and trailing silent blocks : No
Null samples used in CRC calculations : Yes
Used interface : Native Win32 interface for Win NT & 2000
Gap handling : Appended to previous track
Used output format : User Defined Encoder
Selected bitrate : 320 kBit/s
Quality : High
Add ID3 tag : Yes
Command line compressor : C:\Program Files (x86)\Exact Audio Copy\FLAC\FLAC.EXE
Additional command line options : -8 -V -T "ARTIST=%artist%" -T "TITLE=%title%" -T "ALBUM=%albumtitle%" -T "DATE=%year%" -T "TRACKNUMBER=%tracknr%" -T "GENRE=%genre%" -T "COMMENT=%comment%" -T "BAND=%albuminterpret%" -T "ALBUMARTIST=%albuminterpret%" -T "COMPOSER=%composer%" %haslyrics%--tag-from-file=LYRICS="%lyricsfile%"%haslyrics% -T "DISCNUMBER=%cdnumber%" -T "TOTALDISCS=%totalcds%" -T "TOTALTRACKS=%numtracks%" %hascover%--picture="%coverfile%"%hascover% %source% -o %dest%
TOC of the extracted CD
Track | Start | Length | Start sector | End sector
---------------------------------------------------------
1 | 0:00.00 | 5:36.36 | 0 | 25235
2 | 5:36.36 | 3:39.06 | 25236 | 41666
3 | 9:15.42 | 3:20.29 | 41667 | 56695
4 | 12:35.71 | 6:05.69 | 56696 | 84139
5 | 18:41.65 | 3:56.69 | 84140 | 101908
6 | 22:38.59 | 7:49.27 | 101909 | 137110
7 | 30:28.11 | 3:10.67 | 137111 | 151427
8 | 33:39.03 | 3:01.22 | 151428 | 165024
9 | 36:40.25 | 7:47.21 | 165025 | 200070
Track 1
Filename C:\Users\Bryan\Music\My Torrents\Sorgen-Rust-Stevens Trio - A Scent in Motion\Sorgen-Rust-Stevens_Trio_-_A_Scent_in_Motion\01-Sorgen-Rust-Stevens_Trio-Sentry.wav
Pre-gap length 0:00:02.00
Peak level 99.9 %
Extraction speed 2.3 X
Track quality 100.0 %
Test CRC FA0D031A
Copy CRC FA0D031A
Track not present in AccurateRip database
Copy OK
Track 2
Filename C:\Users\Bryan\Music\My Torrents\Sorgen-Rust-Stevens Trio - A Scent in Motion\Sorgen-Rust-Stevens_Trio_-_A_Scent_in_Motion\02-Sorgen-Rust-Stevens_Trio-Fairy_Tale.wav
Pre-gap length 0:00:02.00
Peak level 99.9 %
Extraction speed 2.4 X
Track quality 100.0 %
Test CRC 6ED4EE71
Copy CRC 6ED4EE71
Track not present in AccurateRip database
Copy OK
Track 3
Filename C:\Users\Bryan\Music\My Torrents\Sorgen-Rust-Stevens Trio - A Scent in Motion\Sorgen-Rust-Stevens_Trio_-_A_Scent_in_Motion\03-Sorgen-Rust-Stevens_Trio-Camco.wav
Pre-gap length 0:00:02.00
Peak level 99.9 %
Extraction speed 2.6 X
Track quality 100.0 %
Test CRC 293346C0
Copy CRC 293346C0
Accurately ripped (confidence 1) [7FDDB21E] (AR v1)
Copy OK
Track 4
Filename C:\Users\Bryan\Music\My Torrents\Sorgen-Rust-Stevens Trio - A Scent in Motion\Sorgen-Rust-Stevens_Trio_-_A_Scent_in_Motion\04-Sorgen-Rust-Stevens_Trio-Cpac.wav
Pre-gap length 0:00:02.00
Peak level 99.9 %
Extraction speed 3.0 X
Track quality 100.0 %
Test CRC FABF17B4
Copy CRC FABF17B4
Track not present in AccurateRip database
Copy OK
Track 5
Filename C:\Users\Bryan\Music\My Torrents\Sorgen-Rust-Stevens Trio - A Scent in Motion\Sorgen-Rust-Stevens_Trio_-_A_Scent_in_Motion\05-Sorgen-Rust-Stevens_Trio-Freedom_of_Choice.wav
Pre-gap length 0:00:02.00
Peak level 99.9 %
Extraction speed 3.1 X
Track quality 100.0 %
Test CRC F4319FC0
Copy CRC F4319FC0
Track not present in AccurateRip database
Copy OK
Track 6
Filename C:\Users\Bryan\Music\My Torrents\Sorgen-Rust-Stevens Trio - A Scent in Motion\Sorgen-Rust-Stevens_Trio_-_A_Scent_in_Motion\06-Sorgen-Rust-Stevens_Trio-Magic_Meadow.wav
Pre-gap length 0:00:02.00
Peak level 99.9 %
Extraction speed 3.6 X
Track quality 100.0 %
Test CRC 2FC18855
Copy CRC 2FC18855
Track not present in AccurateRip database
Copy OK
Track 7
Filename C:\Users\Bryan\Music\My Torrents\Sorgen-Rust-Stevens Trio - A Scent in Motion\Sorgen-Rust-Stevens_Trio_-_A_Scent_in_Motion\07-Sorgen-Rust-Stevens_Trio-Starter_Set.wav
Pre-gap length 0:00:02.00
Peak level 99.9 %
Extraction speed 2.6 X
Track quality 99.9 %
Test CRC 8D8B7AA7
Copy CRC 8D8B7AA7
Track not present in AccurateRip database
Copy OK
Track 8
Filename C:\Users\Bryan\Music\My Torrents\Sorgen-Rust-Stevens Trio - A Scent in Motion\Sorgen-Rust-Stevens_Trio_-_A_Scent_in_Motion\08-Sorgen-Rust-Stevens_Trio-Something_You_Said.wav
Pre-gap length 0:00:02.00
Peak level 99.9 %
Extraction speed 3.4 X
Track quality 100.0 %
Test CRC 77E9573E
Copy CRC 77E9573E
Track not present in AccurateRip database
Copy OK
Track 9
Filename C:\Users\Bryan\Music\My Torrents\Sorgen-Rust-Stevens Trio - A Scent in Motion\Sorgen-Rust-Stevens_Trio_-_A_Scent_in_Motion\09-Sorgen-Rust-Stevens_Trio-Spirit_Song.wav
Pre-gap length 0:00:02.00
Peak level 99.9 %
Extraction speed 4.1 X
Track quality 100.0 %
Test CRC E878A915
Copy CRC E878A915
Track not present in AccurateRip database
Copy OK
1 track(s) accurately ripped
8 track(s) not present in the AccurateRip database
Some tracks could not be verified as accurate
No errors occurred
End of status report
==== Log checksum BFDAFACE05C169FD79B168879C09B99C38970FF9973AD2F382287DC07B0E4218 ====
 
Содержание индексной карты (.CUE)
REM GENRE "Avantgarde Jazz"
REM DATE 2009
REM DISCID 5C0A6B09
REM COMMENT "ExactAudioCopy v1.0b3"
PERFORMER "Sorgen-Rust-Stevens Trio"
TITLE "A Scent in Motion"
FILE "01-Sorgen-Rust-Stevens_Trio-Sentry.wav" WAVE
TRACK 01 AUDIO
TITLE "Sentry"
PERFORMER "Sorgen-Rust-Stevens Trio"
INDEX 01 00:00:00
TRACK 02 AUDIO
TITLE "Fairy Tale"
PERFORMER "Sorgen-Rust-Stevens Trio"
INDEX 00 05:34:36
FILE "02-Sorgen-Rust-Stevens_Trio-Fairy_Tale.wav" WAVE
INDEX 01 00:00:00
TRACK 03 AUDIO
TITLE "Camco"
PERFORMER "Sorgen-Rust-Stevens Trio"
INDEX 00 03:37:06
FILE "03-Sorgen-Rust-Stevens_Trio-Camco.wav" WAVE
INDEX 01 00:00:00
TRACK 04 AUDIO
TITLE "Cpac"
PERFORMER "Sorgen-Rust-Stevens Trio"
INDEX 00 03:18:29
FILE "04-Sorgen-Rust-Stevens_Trio-Cpac.wav" WAVE
INDEX 01 00:00:00
TRACK 05 AUDIO
TITLE "Freedom of Choice"
PERFORMER "Sorgen-Rust-Stevens Trio"
INDEX 00 06:03:69
FILE "05-Sorgen-Rust-Stevens_Trio-Freedom_of_Choice.wav" WAVE
INDEX 01 00:00:00
TRACK 06 AUDIO
TITLE "Magic Meadow"
PERFORMER "Sorgen-Rust-Stevens Trio"
INDEX 00 03:54:69
FILE "06-Sorgen-Rust-Stevens_Trio-Magic_Meadow.wav" WAVE
INDEX 01 00:00:00
TRACK 07 AUDIO
TITLE "Starter Set"
PERFORMER "Sorgen-Rust-Stevens Trio"
INDEX 00 07:47:27
FILE "07-Sorgen-Rust-Stevens_Trio-Starter_Set.wav" WAVE
INDEX 01 00:00:00
TRACK 08 AUDIO
TITLE "Something You Said"
PERFORMER "Sorgen-Rust-Stevens Trio"
INDEX 00 03:08:67
FILE "08-Sorgen-Rust-Stevens_Trio-Something_You_Said.wav" WAVE
INDEX 01 00:00:00
TRACK 09 AUDIO
TITLE "Spirit Song"
PERFORMER "Sorgen-Rust-Stevens Trio"
INDEX 00 02:59:22
FILE "09-Sorgen-Rust-Stevens_Trio-Spirit_Song.wav" WAVE
INDEX 01 00:00:00
Any questions -> support@pro-jazz.com. По всем вопросам пишите -> support@pro-jazz.com
10:45
123
Нет комментариев. Ваш будет первым!