Вы используете незарегистрированную версию компонента "Вкладки"!

Поиск

(Contemporary Jazz, Avant-Garde, Soundtrack, Tzadik) John Zorn - Filmworks II: Music for an Untitled Film by Walter Hill - 1996, FLAC (tracks+.cue), lossless

(Contemporary Jazz, Avant-Garde, Soundtrack, Tzadik) John Zorn - Filmworks II: Music for an Untitled Film by Walter Hill - 1996, FLAC (tracks+.cue), lossless
Треклист:
John Zorn / Filmworks II: Music for an Untitled Film by Walter Hill
Жанр: Contemporary Jazz, Avant-Garde, Soundtrack, Tzadik
Страна-производитель диска: U.S.A.
Год издания: 1996
Издатель (лейбл): Tzadik
Номер по каталогу: TZ 7306
Аудиокодек: FLAC (*.flac)
Тип рипа: tracks+.cue
Битрейт аудио: lossless
Продолжительность: 45:19
Источник (релизер): Max Monteiro
Наличие сканов в содержимом раздачи: да
Треклист:
01. Intro 3:09
02. I Stole from Jesus Christ 0:51
03. Gold 0:50
04. Main Title 1:59
05. The Building 0:59
06. Meatlocker 0:58
07. Pigeons 0:53
08. Scuffle 0:21
09. Exploring 1:02
10. Rattlesnakes for Sergio Leone 1:44
11. Two Interiors 0:39
12. Stealth 0:44
13. Action 0:40
14. Dumping the Body 0:40
15. The Trunk 0:09
16. Escape Attempt 1:43
17. Arrival 0:47
18. Prying at the Windows 0:37
19. Arsenal 0:56
20. King James 1:07
21. Powerline 0:19
22. The Magic of Gold 2:26
23. Chimney 0:24
24. Dilemma 1:15
25. Conspiracy 0:46
26. The Plot part 1 1:33
27. The Plot part 2 0:44
28. Heroin Fix 2:41
29. Lucky Run 1:00
30. Vengence Is Mine 2:04
31. Escape 2:02
32. Kill Fever 1:18
33. Outside 0:24
34. Ending 0:57
35. Alternate Ending / End title 2:42
36. Arsenal Dance mix 3:58
All music by John Zorn.
 
Лог создания рипа
Exact Audio Copy V1.0 beta 3 from 29. August 2011
EAC extraction logfile from 8. April 2013, 14:21
John Zorn / Filmworks II: Music for an Untitled Film by Walter Hill
Used drive : SlimtypeeNAU508 5 Adapter: 1 ID: 0
Read mode : Secure
Utilize accurate stream : Yes
Defeat audio cache : Yes
Make use of C2 pointers : No
Read offset correction : 6
Overread into Lead-In and Lead-Out : No
Fill up missing offset samples with silence : Yes
Delete leading and trailing silent blocks : No
Null samples used in CRC calculations : Yes
Used interface : Native Win32 interface for Win NT & 2000
Gap handling : Appended to previous track
Used output format : User Defined Encoder
Selected bitrate : 768 kBit/s
Quality : High
Add ID3 tag : No
Command line compressor : C:\Program Files (x86)\Exact Audio Copy\Flac\flac.exe
Additional command line options : -8 -V -T "ARTIST=%artist%" -T "TITLE=%title%" -T "ALBUM=%albumtitle%" -T "DATE=%year%" -T "TRACKNUMBER=%tracknr%" -T "GENRE=%genre%" -T "PERFORMER=%albuminterpret%" -T "COMPOSER=%composer%" %haslyrics%--tag-from-file=LYRICS="%lyricsfile%"%haslyrics% -T "ALBUMARTIST=%albumartist%" -T "DISCNUMBER=%cdnumber%" -T "TOTALDISCS=%totalcds%" -T "TOTALTRACKS=%numtracks%" -T "COMMENT=%comment%" %source% -o %dest%
TOC of the extracted CD
Track | Start | Length | Start sector | End sector
---------------------------------------------------------
1 | 0:00.00 | 3:09.17 | 0 | 14191
2 | 3:09.17 | 0:50.60 | 14192 | 18001
3 | 4:00.02 | 0:50.00 | 18002 | 21751
4 | 4:50.02 | 1:58.60 | 21752 | 30661
5 | 6:48.62 | 0:59.10 | 30662 | 35096
6 | 7:47.72 | 0:57.38 | 35097 | 39409
7 | 8:45.35 | 0:52.40 | 39410 | 43349
8 | 9:38.00 | 0:21.30 | 43350 | 44954
9 | 9:59.30 | 1:01.47 | 44955 | 49576
10 | 11:01.02 | 1:44.00 | 49577 | 57376
11 | 12:45.02 | 0:39.08 | 57377 | 60309
12 | 13:24.10 | 0:43.52 | 60310 | 63586
13 | 14:07.62 | 0:40.03 | 63587 | 66589
14 | 14:47.65 | 0:39.42 | 66590 | 69556
15 | 15:27.32 | 0:08.43 | 69557 | 70199
16 | 15:36.00 | 1:43.27 | 70200 | 77951
17 | 17:19.27 | 0:46.40 | 77952 | 81441
18 | 18:05.67 | 0:37.28 | 81442 | 84244
19 | 18:43.20 | 0:55.60 | 84245 | 88429
20 | 19:39.05 | 1:07.00 | 88430 | 93454
21 | 20:46.05 | 0:19.27 | 93455 | 94906
22 | 21:05.32 | 2:25.40 | 94907 | 105821
23 | 23:30.72 | 0:23.55 | 105822 | 107601
24 | 23:54.52 | 1:15.18 | 107602 | 113244
25 | 25:09.70 | 0:46.12 | 113245 | 116706
26 | 25:56.07 | 1:33.15 | 116707 | 123696
27 | 27:29.22 | 0:43.73 | 123697 | 126994
28 | 28:13.20 | 2:40.67 | 126995 | 139061
29 | 30:54.12 | 0:59.68 | 139062 | 143554
30 | 31:54.05 | 2:04.00 | 143555 | 152854
31 | 33:58.05 | 2:02.35 | 152855 | 162039
32 | 36:00.40 | 1:17.45 | 162040 | 167859
33 | 37:18.10 | 0:24.35 | 167860 | 169694
34 | 37:42.45 | 0:57.07 | 169695 | 173976
35 | 38:39.52 | 2:41.45 | 173977 | 186096
36 | 41:21.22 | 3:58.08 | 186097 | 203954
Track 1
Filename C:\EAC rips\01 - Intro.wav
Pre-gap length 0:00:02.00
Peak level 30.7 %
Extraction speed 1.6 X
Track quality 99.9 %
Test CRC 9A8EE9D6
Copy CRC 9A8EE9D6
Accurately ripped (confidence 5) [49A95963] (AR v1)
Copy OK
Track 2
Filename C:\EAC rips\02 - I Stole from Jesus Christ.wav
Peak level 98.8 %
Extraction speed 0.9 X
Track quality 99.7 %
Test CRC 19B26275
Copy CRC 19B26275
Accurately ripped (confidence 5) [6CF659EE] (AR v1)
Copy OK
Track 3
Filename C:\EAC rips\03 - Gold.wav
Peak level 44.9 %
Extraction speed 1.5 X
Track quality 100.0 %
Test CRC B2F60AA3
Copy CRC B2F60AA3
Accurately ripped (confidence 5) [9E011715] (AR v1)
Copy OK
Track 4
Filename C:\EAC rips\04 - Main Title.wav
Peak level 82.1 %
Extraction speed 2.1 X
Track quality 100.0 %
Test CRC 513CB810
Copy CRC 513CB810
Accurately ripped (confidence 5) [D1E9FEAB] (AR v1)
Copy OK
Track 5
Filename C:\EAC rips\05 - The Building.wav
Peak level 60.6 %
Extraction speed 1.7 X
Track quality 100.0 %
Test CRC D1944D17
Copy CRC D1944D17
Accurately ripped (confidence 4) [62F3B4EC] (AR v1)
Copy OK
Track 6
Filename C:\EAC rips\06 - Meatlocker.wav
Peak level 98.8 %
Extraction speed 1.7 X
Track quality 100.0 %
Test CRC ADEEBCD4
Copy CRC ADEEBCD4
Accurately ripped (confidence 5) [9C2664B1] (AR v1)
Copy OK
Track 7
Filename C:\EAC rips\07 - Pigeons.wav
Peak level 98.8 %
Extraction speed 1.7 X
Track quality 100.0 %
Test CRC E7B4F13D
Copy CRC E7B4F13D
Accurately ripped (confidence 5) [20D61004] (AR v1)
Copy OK
Track 8
Filename C:\EAC rips\08 - Scuffle.wav
Peak level 98.8 %
Extraction speed 1.0 X
Track quality 100.0 %
Test CRC 9453CB50
Copy CRC 9453CB50
Accurately ripped (confidence 5) [92ED8949] (AR v1)
Copy OK
Track 9
Filename C:\EAC rips\09 - Exploring.wav
Peak level 83.7 %
Extraction speed 1.8 X
Track quality 100.0 %
Test CRC 517BC0F8
Copy CRC 517BC0F8
Accurately ripped (confidence 5) [76DB17E2] (AR v1)
Copy OK
Track 10
Filename C:\EAC rips\10 - Rattlesnakes for Sergio Leone.wav
Peak level 98.8 %
Extraction speed 2.3 X
Track quality 100.0 %
Test CRC ADC35653
Copy CRC ADC35653
Accurately ripped (confidence 5) [048C5763] (AR v1)
Copy OK
Track 11
Filename C:\EAC rips\11 - Two Interiors.wav
Peak level 98.8 %
Extraction speed 1.6 X
Track quality 100.0 %
Test CRC 556FD4BA
Copy CRC 556FD4BA
Accurately ripped (confidence 5) [3432F3E5] (AR v1)
Copy OK
Track 12
Filename C:\EAC rips\12 - Stealth.wav
Peak level 61.5 %
Extraction speed 1.7 X
Track quality 100.0 %
Test CRC DA55056C
Copy CRC DA55056C
Accurately ripped (confidence 5) [854DFC9B] (AR v1)
Copy OK
Track 13
Filename C:\EAC rips\13 - Action.wav
Peak level 98.8 %
Extraction speed 1.6 X
Track quality 100.0 %
Test CRC F45A6553
Copy CRC F45A6553
Accurately ripped (confidence 5) [597DB8B7] (AR v1)
Copy OK
Track 14
Filename C:\EAC rips\14 - Dumping the Body.wav
Peak level 58.7 %
Extraction speed 1.7 X
Track quality 100.0 %
Test CRC 88780AFA
Copy CRC 88780AFA
Accurately ripped (confidence 5) [D7C06233] (AR v1)
Copy OK
Track 15
Filename C:\EAC rips\15 - The Trunk.wav
Peak level 35.0 %
Extraction speed 0.5 X
Track quality 100.0 %
Test CRC BBA960FE
Copy CRC BBA960FE
Accurately ripped (confidence 5) [543ADC9A] (AR v1)
Copy OK
Track 16
Filename C:\EAC rips\16 - Escape Attempt.wav
Peak level 98.8 %
Extraction speed 2.4 X
Track quality 100.0 %
Test CRC 3839FC06
Copy CRC 3839FC06
Accurately ripped (confidence 5) [5FE0CF08] (AR v1)
Copy OK
Track 17
Filename C:\EAC rips\17 - Arrival.wav
Peak level 98.8 %
Extraction speed 1.9 X
Track quality 100.0 %
Test CRC B7EE6B7C
Copy CRC B7EE6B7C
Accurately ripped (confidence 5) [B6456B14] (AR v1)
Copy OK
Track 18
Filename C:\EAC rips\18 - Prying at the Windows.wav
Peak level 98.8 %
Extraction speed 1.7 X
Track quality 100.0 %
Test CRC BABCF716
Copy CRC BABCF716
Accurately ripped (confidence 5) [EB33C8EB] (AR v1)
Copy OK
Track 19
Filename C:\EAC rips\19 - Arsenal.wav
Peak level 98.8 %
Extraction speed 2.0 X
Track quality 100.0 %
Test CRC B7F9FCBE
Copy CRC B7F9FCBE
Accurately ripped (confidence 5) [6C1C9C85] (AR v1)
Copy OK
Track 20
Filename C:\EAC rips\20 - King James.wav
Peak level 98.8 %
Extraction speed 2.2 X
Track quality 100.0 %
Test CRC 85C1FF26
Copy CRC 85C1FF26
Accurately ripped (confidence 5) [E1A7E072] (AR v1)
Copy OK
Track 21
Filename C:\EAC rips\21 - Powerline.wav
Peak level 98.8 %
Extraction speed 1.2 X
Track quality 100.0 %
Test CRC 26C62B8B
Copy CRC 26C62B8B
Accurately ripped (confidence 5) [0857249A] (AR v1)
Copy OK
Track 22
Filename C:\EAC rips\22 - The Magic of Gold.wav
Peak level 60.1 %
Extraction speed 2.8 X
Track quality 100.0 %
Test CRC 40BFF03F
Copy CRC 40BFF03F
Accurately ripped (confidence 5) [E8532568] (AR v1)
Copy OK
Track 23
Filename C:\EAC rips\23 - Chimney.wav
Peak level 98.8 %
Extraction speed 1.4 X
Track quality 100.0 %
Test CRC A4BD4941
Copy CRC A4BD4941
Accurately ripped (confidence 5) [2421E7A2] (AR v1)
Copy OK
Track 24
Filename C:\EAC rips\24 - Dilemma.wav
Peak level 56.9 %
Extraction speed 2.4 X
Track quality 100.0 %
Test CRC D46D1FA7
Copy CRC D46D1FA7
Accurately ripped (confidence 5) [411AC1E4] (AR v1)
Copy OK
Track 25
Filename C:\EAC rips\25 - Conspiracy.wav
Peak level 64.0 %
Extraction speed 1.1 X
Track quality 99.7 %
Test CRC 08B042DA
Copy CRC 08B042DA
Accurately ripped (confidence 5) [E3DC534B] (AR v1)
Copy OK
Track 26
Filename C:\EAC rips\26 - The Plot part 1.wav
Peak level 98.8 %
Extraction speed 2.7 X
Track quality 100.0 %
Test CRC ED92D13E
Copy CRC ED92D13E
Accurately ripped (confidence 5) [16D60C3E] (AR v1)
Copy OK
Track 27
Filename C:\EAC rips\27 - The Plot part 2.wav
Peak level 98.8 %
Extraction speed 2.0 X
Track quality 100.0 %
Test CRC 304873C8
Copy CRC 304873C8
Accurately ripped (confidence 5) [1360092E] (AR v1)
Copy OK
Track 28
Filename C:\EAC rips\28 - Heroin Fix.wav
Peak level 98.8 %
Extraction speed 3.1 X
Track quality 100.0 %
Test CRC 5BBCEDA5
Copy CRC 5BBCEDA5
Accurately ripped (confidence 5) [6638164E] (AR v1)
Copy OK
Track 29
Filename C:\EAC rips\29 - Lucky Run.wav
Peak level 98.8 %
Extraction speed 2.5 X
Track quality 100.0 %
Test CRC FCC0E6FA
Copy CRC FCC0E6FA
Accurately ripped (confidence 5) [1C7335D4] (AR v1)
Copy OK
Track 30
Filename C:\EAC rips\30 - Vengence Is Mine.wav
Peak level 98.8 %
Extraction speed 3.1 X
Track quality 100.0 %
Test CRC F9603EF5
Copy CRC F9603EF5
Accurately ripped (confidence 5) [EB639FBC] (AR v1)
Copy OK
Track 31
Filename C:\EAC rips\31 - Escape.wav
Peak level 98.8 %
Extraction speed 2.2 X
Track quality 99.9 %
Test CRC 7C3330EB
Copy CRC 7C3330EB
Accurately ripped (confidence 5) [89C29F01] (AR v1)
Copy OK
Track 32
Filename C:\EAC rips\32 - Kill Fever.wav
Peak level 98.8 %
Extraction speed 2.7 X
Track quality 100.0 %
Test CRC A9FAB5D5
Copy CRC A9FAB5D5
Accurately ripped (confidence 5) [9FB91BCE] (AR v1)
Copy OK
Track 33
Filename C:\EAC rips\33 - Outside.wav
Peak level 61.7 %
Extraction speed 1.6 X
Track quality 100.0 %
Test CRC F502547E
Copy CRC F502547E
Accurately ripped (confidence 5) [8D6E8B6B] (AR v1)
Copy OK
Track 34
Filename C:\EAC rips\34 - Ending.wav
Peak level 98.0 %
Extraction speed 1.5 X
Track quality 99.8 %
Test CRC 229968ED
Copy CRC 229968ED
Accurately ripped (confidence 5) [0C5161DA] (AR v1)
Copy OK
Track 35
Filename C:\EAC rips\35 - Alternate Ending - End Title.wav
Peak level 97.3 %
Extraction speed 3.5 X
Track quality 100.0 %
Test CRC 42A8F693
Copy CRC 42A8F693
Accurately ripped (confidence 5) [04A25254] (AR v1)
Copy OK
Track 36
Filename C:\EAC rips\36 - Arsenal Dance mix.wav
Pre-gap length 0:00:08.05
Peak level 100.0 %
Extraction speed 3.9 X
Track quality 100.0 %
Test CRC 633F632E
Copy CRC 633F632E
Accurately ripped (confidence 4) [E385A47C] (AR v1)
Copy OK
All tracks accurately ripped
No errors occurred
End of status report
---- CUETools DB Plugin V2.1.4
[CTDB TOCID: LUd.YaZ5Rm34v1BKFPimjE1mTho-] found
Submit result: LUd.YaZ5Rm34v1BKFPimjE1mTho- has been confirmed
Track | CTDB Status
1 | (4/4) Accurately ripped
2 | (4/4) Accurately ripped
3 | (4/4) Accurately ripped
4 | (4/4) Accurately ripped
5 | (4/4) Accurately ripped
6 | (4/4) Accurately ripped
7 | (4/4) Accurately ripped
8 | (4/4) Accurately ripped
9 | (4/4) Accurately ripped
10 | (4/4) Accurately ripped
11 | (4/4) Accurately ripped
12 | (4/4) Accurately ripped
13 | (4/4) Accurately ripped
14 | (4/4) Accurately ripped
15 | (4/4) Accurately ripped
16 | (4/4) Accurately ripped
17 | (4/4) Accurately ripped
18 | (4/4) Accurately ripped
19 | (4/4) Accurately ripped
20 | (4/4) Accurately ripped
21 | (4/4) Accurately ripped
22 | (4/4) Accurately ripped
23 | (4/4) Accurately ripped
24 | (4/4) Accurately ripped
25 | (4/4) Accurately ripped
26 | (4/4) Accurately ripped
27 | (4/4) Accurately ripped
28 | (4/4) Accurately ripped
29 | (4/4) Accurately ripped
30 | (4/4) Accurately ripped
31 | (4/4) Accurately ripped
32 | (4/4) Accurately ripped
33 | (4/4) Accurately ripped
34 | (4/4) Accurately ripped
35 | (4/4) Accurately ripped
36 | (4/4) Accurately ripped
==== Log checksum 2336BEF262F2F644DA88612EACA9BA164C993AE9DED41523DD766D316463A388 ====
 
Содержание индексной карты (.CUE)
REM GENRE Soundtrack
REM DATE 1996
REM DISCID E50A9F24
REM COMMENT "ExactAudioCopy v1.0b3"
PERFORMER "John Zorn"
TITLE "Filmworks II: Music for an Untitled Film by Walter Hill"
FILE "01 - Intro.wav" WAVE
TRACK 01 AUDIO
TITLE "Intro"
PERFORMER "John Zorn"
INDEX 01 00:00:00
FILE "02 - I Stole from Jesus Christ.wav" WAVE
TRACK 02 AUDIO
TITLE "I Stole from Jesus Christ"
PERFORMER "John Zorn"
INDEX 01 00:00:00
FILE "03 - Gold.wav" WAVE
TRACK 03 AUDIO
TITLE "Gold"
PERFORMER "John Zorn"
INDEX 01 00:00:00
FILE "04 - Main Title.wav" WAVE
TRACK 04 AUDIO
TITLE "Main Title"
PERFORMER "John Zorn"
INDEX 01 00:00:00
FILE "05 - The Building.wav" WAVE
TRACK 05 AUDIO
TITLE "The Building"
PERFORMER "John Zorn"
INDEX 01 00:00:00
FILE "06 - Meatlocker.wav" WAVE
TRACK 06 AUDIO
TITLE "Meatlocker"
PERFORMER "John Zorn"
INDEX 01 00:00:00
FILE "07 - Pigeons.wav" WAVE
TRACK 07 AUDIO
TITLE "Pigeons"
PERFORMER "John Zorn"
INDEX 01 00:00:00
FILE "08 - Scuffle.wav" WAVE
TRACK 08 AUDIO
TITLE "Scuffle"
PERFORMER "John Zorn"
INDEX 01 00:00:00
FILE "09 - Exploring.wav" WAVE
TRACK 09 AUDIO
TITLE "Exploring"
PERFORMER "John Zorn"
INDEX 01 00:00:00
FILE "10 - Rattlesnakes for Sergio Leone.wav" WAVE
TRACK 10 AUDIO
TITLE "Rattlesnakes for Sergio Leone"
PERFORMER "John Zorn"
INDEX 01 00:00:00
FILE "11 - Two Interiors.wav" WAVE
TRACK 11 AUDIO
TITLE "Two Interiors"
PERFORMER "John Zorn"
INDEX 01 00:00:00
FILE "12 - Stealth.wav" WAVE
TRACK 12 AUDIO
TITLE "Stealth"
PERFORMER "John Zorn"
INDEX 01 00:00:00
FILE "13 - Action.wav" WAVE
TRACK 13 AUDIO
TITLE "Action"
PERFORMER "John Zorn"
INDEX 01 00:00:00
FILE "14 - Dumping the Body.wav" WAVE
TRACK 14 AUDIO
TITLE "Dumping the Body"
PERFORMER "John Zorn"
INDEX 01 00:00:00
FILE "15 - The Trunk.wav" WAVE
TRACK 15 AUDIO
TITLE "The Trunk"
PERFORMER "John Zorn"
INDEX 01 00:00:00
FILE "16 - Escape Attempt.wav" WAVE
TRACK 16 AUDIO
TITLE "Escape Attempt"
PERFORMER "John Zorn"
INDEX 01 00:00:00
FILE "17 - Arrival.wav" WAVE
TRACK 17 AUDIO
TITLE "Arrival"
PERFORMER "John Zorn"
INDEX 01 00:00:00
FILE "18 - Prying at the Windows.wav" WAVE
TRACK 18 AUDIO
TITLE "Prying at the Windows"
PERFORMER "John Zorn"
INDEX 01 00:00:00
FILE "19 - Arsenal.wav" WAVE
TRACK 19 AUDIO
TITLE "Arsenal"
PERFORMER "John Zorn"
INDEX 01 00:00:00
FILE "20 - King James.wav" WAVE
TRACK 20 AUDIO
TITLE "King James"
PERFORMER "John Zorn"
INDEX 01 00:00:00
FILE "21 - Powerline.wav" WAVE
TRACK 21 AUDIO
TITLE "Powerline"
PERFORMER "John Zorn"
INDEX 01 00:00:00
FILE "22 - The Magic of Gold.wav" WAVE
TRACK 22 AUDIO
TITLE "The Magic of Gold"
PERFORMER "John Zorn"
INDEX 01 00:00:00
FILE "23 - Chimney.wav" WAVE
TRACK 23 AUDIO
TITLE "Chimney"
PERFORMER "John Zorn"
INDEX 01 00:00:00
FILE "24 - Dilemma.wav" WAVE
TRACK 24 AUDIO
TITLE "Dilemma"
PERFORMER "John Zorn"
INDEX 01 00:00:00
FILE "25 - Conspiracy.wav" WAVE
TRACK 25 AUDIO
TITLE "Conspiracy"
PERFORMER "John Zorn"
INDEX 01 00:00:00
FILE "26 - The Plot part 1.wav" WAVE
TRACK 26 AUDIO
TITLE "The Plot part 1"
PERFORMER "John Zorn"
INDEX 01 00:00:00
FILE "27 - The Plot part 2.wav" WAVE
TRACK 27 AUDIO
TITLE "The Plot part 2"
PERFORMER "John Zorn"
INDEX 01 00:00:00
FILE "28 - Heroin Fix.wav" WAVE
TRACK 28 AUDIO
TITLE "Heroin Fix"
PERFORMER "John Zorn"
INDEX 01 00:00:00
FILE "29 - Lucky Run.wav" WAVE
TRACK 29 AUDIO
TITLE "Lucky Run"
PERFORMER "John Zorn"
INDEX 01 00:00:00
FILE "30 - Vengence Is Mine.wav" WAVE
TRACK 30 AUDIO
TITLE "Vengence Is Mine"
PERFORMER "John Zorn"
INDEX 01 00:00:00
FILE "31 - Escape.wav" WAVE
TRACK 31 AUDIO
TITLE "Escape"
PERFORMER "John Zorn"
INDEX 01 00:00:00
FILE "32 - Kill Fever.wav" WAVE
TRACK 32 AUDIO
TITLE "Kill Fever"
PERFORMER "John Zorn"
INDEX 01 00:00:00
FILE "33 - Outside.wav" WAVE
TRACK 33 AUDIO
TITLE "Outside"
PERFORMER "John Zorn"
INDEX 01 00:00:00
FILE "34 - Ending.wav" WAVE
TRACK 34 AUDIO
TITLE "Ending"
PERFORMER "John Zorn"
INDEX 01 00:00:00
FILE "35 - Alternate Ending - End Title.wav" WAVE
TRACK 35 AUDIO
TITLE "Alternate Ending / End Title"
PERFORMER "John Zorn"
INDEX 01 00:00:00
TRACK 36 AUDIO
TITLE "Arsenal Dance mix"
PERFORMER "John Zorn"
INDEX 00 02:33:40
FILE "36 - Arsenal Dance mix.wav" WAVE
INDEX 01 00:00:00
Доп. информация: Recorded and mixed May / June 1992 at Shelley Palmer Studios.
 
Состав
Ciro Baptista – Brazilian Percussion
Anthony Coleman – Prepared Piano, Keyboards
Carol Emanuel – Harp
Andy Haas – Didjeridu
Jim Pugliese – Percussion
Marc Ribot – Guitar, Banjo
David Shea – Turntables, Sampler
Any questions -> support@pro-jazz.com. По всем вопросам пишите -> support@pro-jazz.com
10:43
210
Нет комментариев. Ваш будет первым!