Вы используете незарегистрированную версию компонента "Вкладки"!

Поиск

(Free Improvisation) Michael Blake / Kresten Osgood - Control This - 2009, FLAC (tracks+.cue), lossless

(Free Improvisation) Michael Blake / Kresten Osgood - Control This - 2009, FLAC (tracks+.cue), lossless
Треклист:
Michael Blake, Kresten Osgood / Control This
Жанр: Free Improvisation
Страна-производитель диска: Portugal
Год издания: 2009
Издатель (лейбл): Clean Feed
Номер по каталогу: CF136CD
Аудиокодек: FLAC (*.flac)
Тип рипа: tracks+.cue
Битрейт аудио: lossless
Продолжительность: 55:48
Источник (релизер): whatcd
Наличие сканов в содержимом раздачи: нет
Треклист:
1 Salutations 6:37
2 Control This 3:47
3 Creole Love Call 10:02
4 Top Hat 5:42
5 Elephants Are Afraif Of Mice 7:09
6 Cotton Mouth 8:40
7 Cheryl 13:48
 
Лог создания рипа
X Lossless Decoder version 20130127 (142.3)
XLD extraction logfile from 2013-03-20 02:56:57 +0400
Michael Blake, Kresten Osgood / Control This
Used drive : HL-DT-ST DVDRW GX30N (revision RP09)
Media type : Pressed CD
Ripper mode : XLD Secure Ripper
Disable audio cache : OK for the drive with a cache less than 1375KiB
Make use of C2 pointers : NO
Read offset correction : 6
Max retry count : 20
Gap status : Analyzed, Appended
TOC of the extracted CD
Track | Start | Length | Start sector | End sector
---------------------------------------------------------
1 | 00:00:00 | 06:37:52 | 0 | 29826
2 | 06:37:52 | 03:47:01 | 29827 | 46852
3 | 10:24:53 | 10:02:35 | 46853 | 92037
4 | 20:27:13 | 05:42:68 | 92038 | 117755
5 | 26:10:06 | 07:09:68 | 117756 | 149998
6 | 33:19:74 | 08:40:20 | 149999 | 189018
7 | 42:00:19 | 13:48:38 | 189019 | 251156
AccurateRip Summary
Disc not found in AccurateRip DB.
All Tracks
Album gain : -3.81 dB
Peak : 0.998962
Statistics
Read error : 0
Jitter error (maybe fixed) : 0
Retry sector count : 0
Damaged sector count : 0
Track 01
Filename : /Users/anch/Music/FLAC/Michael Blake, Kresten Osgood - 2009 - Control This [FLAC]/01 - Salutations.flac
/Users/anch/Music/FLAC/Michael Blake, Kresten Osgood - 2009 - Control This [MP3 320]/01 - Salutations.mp3
/Users/anch/Music/FLAC/Michael Blake, Kresten Osgood - 2009 - Control This [MP3 V0]/01 - Salutations.mp3
Pre-gap length : 00:02:00
Track gain : -0.34 dB
Peak : 0.890594
CRC32 hash (test run) : 3DADCB8A
CRC32 hash : 3DADCB8A
CRC32 hash (skip zero) : A6F40D08
AccurateRip v1 signature : C8E40EA2
AccurateRip v2 signature : DCB7354B
->Track not present in AccurateRip database.
Statistics
Read error : 0
Jitter error (maybe fixed) : 0
Retry sector count : 0
Damaged sector count : 0
Track 02
Filename : /Users/anch/Music/FLAC/Michael Blake, Kresten Osgood - 2009 - Control This [FLAC]/02 - Control This.flac
/Users/anch/Music/FLAC/Michael Blake, Kresten Osgood - 2009 - Control This [MP3 320]/02 - Control This.mp3
/Users/anch/Music/FLAC/Michael Blake, Kresten Osgood - 2009 - Control This [MP3 V0]/02 - Control This.mp3
Pre-gap length : 00:02:00
Track gain : -5.66 dB
Peak : 0.998962
CRC32 hash (test run) : 19D34DFE
CRC32 hash : 19D34DFE
CRC32 hash (skip zero) : 4123BE94
AccurateRip v1 signature : 593CE7CC
AccurateRip v2 signature : 32577D24
->Track not present in AccurateRip database.
Statistics
Read error : 0
Jitter error (maybe fixed) : 0
Retry sector count : 0
Damaged sector count : 0
Track 03
Filename : /Users/anch/Music/FLAC/Michael Blake, Kresten Osgood - 2009 - Control This [FLAC]/03 - Creole Love Call.flac
/Users/anch/Music/FLAC/Michael Blake, Kresten Osgood - 2009 - Control This [MP3 320]/03 - Creole Love Call.mp3
/Users/anch/Music/FLAC/Michael Blake, Kresten Osgood - 2009 - Control This [MP3 V0]/03 - Creole Love Call.mp3
Pre-gap length : 00:02:00
Track gain : -4.99 dB
Peak : 0.949036
CRC32 hash (test run) : 6B000662
CRC32 hash : 6B000662
CRC32 hash (skip zero) : D7049657
AccurateRip v1 signature : A570A7D5
AccurateRip v2 signature : 98DDC16B
->Track not present in AccurateRip database.
Statistics
Read error : 0
Jitter error (maybe fixed) : 0
Retry sector count : 0
Damaged sector count : 0
Track 04
Filename : /Users/anch/Music/FLAC/Michael Blake, Kresten Osgood - 2009 - Control This [FLAC]/04 - Top Hat.flac
/Users/anch/Music/FLAC/Michael Blake, Kresten Osgood - 2009 - Control This [MP3 320]/04 - Top Hat.mp3
/Users/anch/Music/FLAC/Michael Blake, Kresten Osgood - 2009 - Control This [MP3 V0]/04 - Top Hat.mp3
Pre-gap length : 00:02:00
Track gain : -4.43 dB
Peak : 0.995148
CRC32 hash (test run) : 78A58C1E
CRC32 hash : 78A58C1E
CRC32 hash (skip zero) : 21B0E035
AccurateRip v1 signature : 060C7DF4
AccurateRip v2 signature : E9D06132
->Track not present in AccurateRip database.
Statistics
Read error : 0
Jitter error (maybe fixed) : 0
Retry sector count : 0
Damaged sector count : 0
Track 05
Filename : /Users/anch/Music/FLAC/Michael Blake, Kresten Osgood - 2009 - Control This [FLAC]/05 - Elephants Are Afraif of Mice.flac
/Users/anch/Music/FLAC/Michael Blake, Kresten Osgood - 2009 - Control This [MP3 320]/05 - Elephants Are Afraif of Mice.mp3
/Users/anch/Music/FLAC/Michael Blake, Kresten Osgood - 2009 - Control This [MP3 V0]/05 - Elephants Are Afraif of Mice.mp3
Pre-gap length : 00:02:00
Track gain : -1.60 dB
Peak : 0.912262
CRC32 hash (test run) : F321CEB5
CRC32 hash : F321CEB5
CRC32 hash (skip zero) : 80895E11
AccurateRip v1 signature : C4482731
AccurateRip v2 signature : 314F5FB0
->Track not present in AccurateRip database.
Statistics
Read error : 0
Jitter error (maybe fixed) : 0
Retry sector count : 0
Damaged sector count : 0
Track 06
Filename : /Users/anch/Music/FLAC/Michael Blake, Kresten Osgood - 2009 - Control This [FLAC]/06 - Cotton Mouth.flac
/Users/anch/Music/FLAC/Michael Blake, Kresten Osgood - 2009 - Control This [MP3 320]/06 - Cotton Mouth.mp3
/Users/anch/Music/FLAC/Michael Blake, Kresten Osgood - 2009 - Control This [MP3 V0]/06 - Cotton Mouth.mp3
Pre-gap length : 00:02:00
Track gain : -3.20 dB
Peak : 0.982605
CRC32 hash (test run) : 3DA740EC
CRC32 hash : 3DA740EC
CRC32 hash (skip zero) : 7B8ED498
AccurateRip v1 signature : 020AA145
AccurateRip v2 signature : 63A191C6
->Track not present in AccurateRip database.
Statistics
Read error : 0
Jitter error (maybe fixed) : 0
Retry sector count : 0
Damaged sector count : 0
Track 07
Filename : /Users/anch/Music/FLAC/Michael Blake, Kresten Osgood - 2009 - Control This [FLAC]/07 - Cheryl.flac
/Users/anch/Music/FLAC/Michael Blake, Kresten Osgood - 2009 - Control This [MP3 320]/07 - Cheryl.mp3
/Users/anch/Music/FLAC/Michael Blake, Kresten Osgood - 2009 - Control This [MP3 V0]/07 - Cheryl.mp3
Pre-gap length : 00:02:00
Track gain : -2.63 dB
Peak : 0.840332
CRC32 hash (test run) : 573DE863
CRC32 hash : 573DE863
CRC32 hash (skip zero) : 11DBFDF2
AccurateRip v1 signature : 4F90CDE8
AccurateRip v2 signature : 87D5A52E
->Track not present in AccurateRip database.
Statistics
Read error : 0
Jitter error (maybe fixed) : 0
Retry sector count : 0
Damaged sector count : 0
No errors occurred
End of status report
 
Содержание индексной карты (.CUE)
TITLE "Control This"
PERFORMER "Michael Blake, Kresten Osgood"
REM GENRE "Free Jazz"
REM DATE "2009"
REM DISCNUMBER 1
REM TOTALDISCS 1
REM DISCID 500D1407
REM REPLAYGAIN_ALBUM_GAIN -3.81 dB
REM REPLAYGAIN_ALBUM_PEAK 0.998962
FILE "01 - Salutations.flac" WAVE
TRACK 01 AUDIO
TITLE "Salutations"
PERFORMER "Michael Blake, Kresten Osgood"
REM REPLAYGAIN_TRACK_GAIN -0.34 dB
REM REPLAYGAIN_TRACK_PEAK 0.890594
INDEX 01 00:00:00
TRACK 02 AUDIO
TITLE "Control This"
PERFORMER "Michael Blake, Kresten Osgood"
REM REPLAYGAIN_TRACK_GAIN -5.66 dB
REM REPLAYGAIN_TRACK_PEAK 0.998962
INDEX 00 06:35:52
FILE "02 - Control This.flac" WAVE
INDEX 01 00:00:00
TRACK 03 AUDIO
TITLE "Creole Love Call"
PERFORMER "Michael Blake, Kresten Osgood"
REM REPLAYGAIN_TRACK_GAIN -4.99 dB
REM REPLAYGAIN_TRACK_PEAK 0.949036
INDEX 00 03:45:01
FILE "03 - Creole Love Call.flac" WAVE
INDEX 01 00:00:00
TRACK 04 AUDIO
TITLE "Top Hat"
PERFORMER "Michael Blake, Kresten Osgood"
REM REPLAYGAIN_TRACK_GAIN -4.43 dB
REM REPLAYGAIN_TRACK_PEAK 0.995148
INDEX 00 10:00:35
FILE "04 - Top Hat.flac" WAVE
INDEX 01 00:00:00
TRACK 05 AUDIO
TITLE "Elephants Are Afraif of Mice"
PERFORMER "Michael Blake, Kresten Osgood"
REM REPLAYGAIN_TRACK_GAIN -1.60 dB
REM REPLAYGAIN_TRACK_PEAK 0.912262
INDEX 00 05:40:68
FILE "05 - Elephants Are Afraif of Mice.flac" WAVE
INDEX 01 00:00:00
TRACK 06 AUDIO
TITLE "Cotton Mouth"
PERFORMER "Michael Blake, Kresten Osgood"
REM REPLAYGAIN_TRACK_GAIN -3.20 dB
REM REPLAYGAIN_TRACK_PEAK 0.982605
INDEX 00 07:07:68
FILE "06 - Cotton Mouth.flac" WAVE
INDEX 01 00:00:00
TRACK 07 AUDIO
TITLE "Cheryl"
PERFORMER "Michael Blake, Kresten Osgood"
REM REPLAYGAIN_TRACK_GAIN -2.63 dB
REM REPLAYGAIN_TRACK_PEAK 0.840332
INDEX 00 08:38:20
FILE "07 - Cheryl.flac" WAVE
INDEX 01 00:00:00
 
Состав
Drums – Kresten Osgood
Saxophone – Michael Blake
Any questions -> support@pro-jazz.com. По всем вопросам пишите -> support@pro-jazz.com
10:43
153
Нет комментариев. Ваш будет первым!