Вы используете незарегистрированную версию компонента "Вкладки"!

Поиск

(Free Jazz, Free Improvisation) VA - Wildflowers: Loft Jazz New York 1976 (3CDs) - 2005 (1977), FLAC (tracks+.cue), lossless

(Free Jazz, Free Improvisation) VA - Wildflowers: Loft Jazz New York 1976 (3CDs) - 2005 (1977), FLAC (tracks+.cue), lossless
Треклист:
VA / Wildflowers: Loft Jazz New York 1976 (3CDs)
Жанр: Free Jazz, Free Improvisation
Страна-производитель диска: France
Год издания: 2005 (1977)
Издатель (лейбл): Douglas Records
Номер по каталогу: AD-10
Аудиокодек: FLAC (*.flac)
Тип рипа: tracks+.cue
Битрейт аудио: lossless
Продолжительность: 1:10:16 + 1:03:01 + 1:00:49
Источник (релизер): Max Monteiro
Наличие сканов в содержимом раздачи: нет
Треклист:
Disc 1
1. Kalaparusha: Jays (Kalaparusha Maurice McIntyre) 6:15
2. Ken Mc Intyre: New Times (Ken Mc Intyre) 7:49
3. Sunny Murray & The Untouchable Factor: Over the Rainbow (Harold Arlen) 5:52
4. Sam Rivers: Rainbows (Sam Rivers) 10:27
5. Air: Uso Dance (Henry Threadgill) 8:30
6. Flight to Sanity: The Need to Smile (Solenius Smith) 10:49
7. Ken Mc Intyre: Naomi (Ken Mc Intyre) 6:35
8. Anthony Braxton: 73°- S Kelvin (Anthony Braxton) 6:45
9. Marion Brown: And Then They Danced (Marion Brown) 7:15
Disc 2
1. Leo Smith & The New Delta Ahkri: Locomotif No. 6 (Anthony Davis) 6:26
2. Randy Weston: Portrait of Frank Edward Weston (Randy Weston) 9:19
3. Michael Jackson: Clarity Two (Michael Jackson) 6:12
4. Dave Burrell: Black Robert (Dave Burrell) 5:46
5. Abdullah: Blue Phase (Ahmed Abdullah) 12:37
6. Andrew Cyrille & Maono: Short Short (Andrew Cyrille) 7:00
7. Hamiet Bluiett: Tranquil Beauty (Hamiet Bluiett) 5:47
8. Julius Hemphill: Pensive (Julius Hemphill) 9:54
Disc 3
1. Jimmy Lyons: Push Pull (Jimmy Lyons) 5:35
2. Oliver Lake: Zaki (Oliver Lake) 9:55
3. David Murray: Shout Song (David Murray) 2:49
4. Sunny Murray & The Untouchable Factor: Something’s Cookin’ (Sunny Murray) 17:07
5. Roscoe Mitchell: Chant (Roscoe Mitchell) 25:22
 
Лог создания рипа
 
Disc 1
Exact Audio Copy V1.0 beta 3 from 29. August 2011
EAC extraction logfile from 7. April 2013, 11:59
VA / Wildflowers: Loft Jazz New York 1976
Used drive : SlimtypeeNAU508 5 Adapter: 1 ID: 0
Read mode : Secure
Utilize accurate stream : Yes
Defeat audio cache : Yes
Make use of C2 pointers : No
Read offset correction : 6
Overread into Lead-In and Lead-Out : No
Fill up missing offset samples with silence : Yes
Delete leading and trailing silent blocks : No
Null samples used in CRC calculations : Yes
Used interface : Native Win32 interface for Win NT & 2000
Gap handling : Appended to previous track
Used output format : User Defined Encoder
Selected bitrate : 768 kBit/s
Quality : High
Add ID3 tag : No
Command line compressor : C:\Program Files (x86)\Exact Audio Copy\Flac\flac.exe
Additional command line options : -8 -V -T "ARTIST=%artist%" -T "TITLE=%title%" -T "ALBUM=%albumtitle%" -T "DATE=%year%" -T "TRACKNUMBER=%tracknr%" -T "GENRE=%genre%" -T "PERFORMER=%albuminterpret%" -T "COMPOSER=%composer%" %haslyrics%--tag-from-file=LYRICS="%lyricsfile%"%haslyrics% -T "ALBUMARTIST=%albumartist%" -T "DISCNUMBER=%cdnumber%" -T "TOTALDISCS=%totalcds%" -T "TOTALTRACKS=%numtracks%" -T "COMMENT=%comment%" %source% -o %dest%
TOC of the extracted CD
Track | Start | Length | Start sector | End sector
---------------------------------------------------------
1 | 0:00.00 | 6:15.18 | 0 | 28142
2 | 6:15.18 | 7:48.40 | 28143 | 63282
3 | 14:03.58 | 5:51.72 | 63283 | 89679
4 | 19:55.55 | 10:27.03 | 89680 | 136707
5 | 30:22.58 | 8:30.32 | 136708 | 174989
6 | 38:53.15 | 10:48.55 | 174990 | 223644
7 | 49:41.70 | 6:34.58 | 223645 | 253252
8 | 56:16.53 | 6:45.12 | 253253 | 283639
9 | 63:01.65 | 7:14.43 | 283640 | 316232
Track 1
Filename C:\EAC rips\01 - Jays.wav
Pre-gap length 0:00:02.00
Peak level 94.4 %
Extraction speed 2.5 X
Track quality 100.0 %
Test CRC 12AA1BBA
Copy CRC 12AA1BBA
Accurately ripped (confidence 3) [87AB2664] (AR v1)
Copy OK
Track 2
Filename C:\EAC rips\02 - New Times.wav
Pre-gap length 0:00:04.13
Peak level 94.4 %
Extraction speed 3.0 X
Track quality 100.0 %
Test CRC FEE13FF9
Copy CRC FEE13FF9
Accurately ripped (confidence 3) [B09B46DC] (AR v1)
Copy OK
Track 3
Filename C:\EAC rips\03 - Over the Rainbow.wav
Pre-gap length 0:00:03.15
Peak level 76.7 %
Extraction speed 3.2 X
Track quality 100.0 %
Test CRC 2E9967F9
Copy CRC 2E9967F9
Accurately ripped (confidence 3) [D5CE65E5] (AR v1)
Copy OK
Track 4
Filename C:\EAC rips\04 - Rainbows.wav
Pre-gap length 0:00:03.47
Peak level 88.5 %
Extraction speed 3.7 X
Track quality 100.0 %
Test CRC 842D3C3C
Copy CRC 842D3C3C
Accurately ripped (confidence 3) [5F3A76BA] (AR v1)
Copy OK
Track 5
Filename C:\EAC rips\05 - USO Dance.wav
Pre-gap length 0:00:03.03
Peak level 93.8 %
Extraction speed 4.0 X
Track quality 100.0 %
Test CRC 4165F566
Copy CRC 4165F566
Accurately ripped (confidence 3) [88090D0A] (AR v1)
Copy OK
Track 6
Filename C:\EAC rips\06 - The Need to Smile.wav
Pre-gap length 0:00:03.45
Peak level 85.4 %
Extraction speed 4.1 X
Track quality 99.9 %
Test CRC 0383AF44
Copy CRC 0383AF44
Accurately ripped (confidence 3) [A8495F38] (AR v1)
Copy OK
Track 7
Filename C:\EAC rips\07 - Naomi.wav
Pre-gap length 0:00:03.02
Peak level 94.2 %
Extraction speed 4.5 X
Track quality 100.0 %
Test CRC 7604BAA2
Copy CRC 7604BAA2
Accurately ripped (confidence 3) [2900162B] (AR v1)
Copy OK
Track 8
Filename C:\EAC rips\08 - 73°-S Kelvin.wav
Pre-gap length 0:00:03.00
Peak level 79.4 %
Extraction speed 4.8 X
Track quality 100.0 %
Test CRC 6B77C049
Copy CRC 6B77C049
Accurately ripped (confidence 3) [EF507CB8] (AR v1)
Copy OK
Track 9
Filename C:\EAC rips\09 - And Then They Dance.wav
Pre-gap length 0:00:03.27
Peak level 64.8 %
Extraction speed 4.4 X
Track quality 99.9 %
Test CRC 6A9DD88D
Copy CRC 6A9DD88D
Accurately ripped (confidence 3) [171BCD78] (AR v1)
Copy OK
All tracks accurately ripped
No errors occurred
End of status report
---- CUETools DB Plugin V2.1.4
[CTDB TOCID: w6fpcD_iH0w0C2qJ5_v8tIeTSJI-] found
Submit result: w6fpcD_iH0w0C2qJ5_v8tIeTSJI- has been confirmed
Track | CTDB Status
1 | (3/3) Accurately ripped
2 | (3/3) Accurately ripped
3 | (3/3) Accurately ripped
4 | (3/3) Accurately ripped
5 | (3/3) Accurately ripped
6 | (3/3) Accurately ripped
7 | (3/3) Accurately ripped
8 | (3/3) Accurately ripped
9 | (3/3) Accurately ripped
==== Log checksum AE1C98E85CCD8088884C53B61B9910D9C0D2BA0824D162AC5E7BEC1589510F65 ====
 
Disc 2
Exact Audio Copy V1.0 beta 3 from 29. August 2011
EAC extraction logfile from 7. April 2013, 11:02
VA / Wildflowers: Loft Jazz New York 1976 (Disc 2)
Used drive : SlimtypeeNAU508 5 Adapter: 1 ID: 0
Read mode : Secure
Utilize accurate stream : Yes
Defeat audio cache : Yes
Make use of C2 pointers : No
Read offset correction : 6
Overread into Lead-In and Lead-Out : No
Fill up missing offset samples with silence : Yes
Delete leading and trailing silent blocks : No
Null samples used in CRC calculations : Yes
Used interface : Native Win32 interface for Win NT & 2000
Gap handling : Appended to previous track
Used output format : User Defined Encoder
Selected bitrate : 768 kBit/s
Quality : High
Add ID3 tag : No
Command line compressor : C:\Program Files (x86)\Exact Audio Copy\Flac\flac.exe
Additional command line options : -8 -V -T "ARTIST=%artist%" -T "TITLE=%title%" -T "ALBUM=%albumtitle%" -T "DATE=%year%" -T "TRACKNUMBER=%tracknr%" -T "GENRE=%genre%" -T "PERFORMER=%albuminterpret%" -T "COMPOSER=%composer%" %haslyrics%--tag-from-file=LYRICS="%lyricsfile%"%haslyrics% -T "ALBUMARTIST=%albumartist%" -T "DISCNUMBER=%cdnumber%" -T "TOTALDISCS=%totalcds%" -T "TOTALTRACKS=%numtracks%" -T "COMMENT=%comment%" %source% -o %dest%
TOC of the extracted CD
Track | Start | Length | Start sector | End sector
---------------------------------------------------------
1 | 0:00.00 | 6:26.23 | 0 | 28972
2 | 6:26.23 | 9:19.22 | 28973 | 70919
3 | 15:45.45 | 6:11.58 | 70920 | 98802
4 | 21:57.28 | 5:45.47 | 98803 | 124724
5 | 27:43.00 | 12:36.70 | 124725 | 181494
6 | 40:19.70 | 6:59.58 | 181495 | 212977
7 | 47:19.53 | 5:47.37 | 212978 | 239039
8 | 53:07.15 | 9:54.10 | 239040 | 283599
Track 1
Filename C:\EAC rips\01 - Locomotif No. 6.wav
Pre-gap length 0:00:02.00
Peak level 94.4 %
Extraction speed 2.4 X
Track quality 100.0 %
Test CRC 806C1B03
Copy CRC 806C1B03
Accurately ripped (confidence 3) [52752868] (AR v1)
Copy OK
Track 2
Filename C:\EAC rips\02 - Portrait of Frank Edward Weston.wav
Pre-gap length 0:00:02.00
Peak level 90.0 %
Extraction speed 2.9 X
Track quality 100.0 %
Test CRC 40BBC823
Copy CRC 40BBC823
Accurately ripped (confidence 3) [2ECB8771] (AR v1)
Copy OK
Track 3
Filename C:\EAC rips\03 - Clarity Two.wav
Pre-gap length 0:00:01.47
Peak level 80.8 %
Extraction speed 3.2 X
Track quality 100.0 %
Test CRC 348DF18B
Copy CRC 348DF18B
Accurately ripped (confidence 3) [06D6DAAD] (AR v1)
Copy OK
Track 4
Filename C:\EAC rips\04 - Black Robert.wav
Pre-gap length 0:00:02.25
Peak level 91.6 %
Extraction speed 3.0 X
Track quality 99.9 %
Test CRC 05E1C8E6
Copy CRC 05E1C8E6
Accurately ripped (confidence 3) [399A65A3] (AR v1)
Copy OK
Track 5
Filename C:\EAC rips\05 - Blue Phase.wav
Pre-gap length 0:00:01.62
Peak level 86.3 %
Extraction speed 3.7 X
Track quality 99.9 %
Test CRC 8DEDB950
Copy CRC 8DEDB950
Accurately ripped (confidence 3) [8141E88B] (AR v1)
Copy OK
Track 6
Filename C:\EAC rips\06 - Short Short.wav
Pre-gap length 0:00:01.50
Peak level 85.5 %
Extraction speed 4.2 X
Track quality 100.0 %
Test CRC 27C04AA7
Copy CRC 27C04AA7
Accurately ripped (confidence 3) [F0CBEDC6] (AR v1)
Copy OK
Track 7
Filename C:\EAC rips\07 - Tranquil Beauty.wav
Pre-gap length 0:00:02.48
Peak level 94.1 %
Extraction speed 4.3 X
Track quality 100.0 %
Test CRC D11F5E61
Copy CRC D11F5E61
Accurately ripped (confidence 3) [32ED4F08] (AR v1)
Copy OK
Track 8
Filename C:\EAC rips\08 - Pensive.wav
Pre-gap length 0:00:01.67
Peak level 94.4 %
Extraction speed 2.7 X
Track quality 99.8 %
Test CRC BBAD7AB6
Copy CRC BBAD7AB6
Accurately ripped (confidence 3) [BD2CC030] (AR v1)
Copy OK
All tracks accurately ripped
No errors occurred
End of status report
---- CUETools DB Plugin V2.1.4
[CTDB TOCID: _9uDOQkKwV6OdpXEKTHHXOLj5l0-] found
Submit result: _9uDOQkKwV6OdpXEKTHHXOLj5l0- has been confirmed
Track | CTDB Status
1 | (2/2) Accurately ripped
2 | (2/2) Accurately ripped
3 | (2/2) Accurately ripped
4 | (2/2) Accurately ripped
5 | (2/2) Accurately ripped
6 | (2/2) Accurately ripped
7 | (2/2) Accurately ripped
8 | (2/2) Accurately ripped
==== Log checksum F8477333D679386B9A079D227BAD5B8C1DADFFAD010766F530C01CEC40B1AEE1 ====
 
Disc 3
Exact Audio Copy V1.0 beta 3 from 29. August 2011
EAC extraction logfile from 7. April 2013, 13:24
VA / Wildflowers: Loft Jazz New York 1976 (Disc 3)
Used drive : SlimtypeeNAU508 5 Adapter: 1 ID: 0
Read mode : Secure
Utilize accurate stream : Yes
Defeat audio cache : Yes
Make use of C2 pointers : No
Read offset correction : 6
Overread into Lead-In and Lead-Out : No
Fill up missing offset samples with silence : Yes
Delete leading and trailing silent blocks : No
Null samples used in CRC calculations : Yes
Used interface : Native Win32 interface for Win NT & 2000
Gap handling : Appended to previous track
Used output format : User Defined Encoder
Selected bitrate : 768 kBit/s
Quality : High
Add ID3 tag : No
Command line compressor : C:\Program Files (x86)\Exact Audio Copy\Flac\flac.exe
Additional command line options : -8 -V -T "ARTIST=%artist%" -T "TITLE=%title%" -T "ALBUM=%albumtitle%" -T "DATE=%year%" -T "TRACKNUMBER=%tracknr%" -T "GENRE=%genre%" -T "PERFORMER=%albuminterpret%" -T "COMPOSER=%composer%" %haslyrics%--tag-from-file=LYRICS="%lyricsfile%"%haslyrics% -T "ALBUMARTIST=%albumartist%" -T "DISCNUMBER=%cdnumber%" -T "TOTALDISCS=%totalcds%" -T "TOTALTRACKS=%numtracks%" -T "COMMENT=%comment%" %source% -o %dest%
TOC of the extracted CD
Track | Start | Length | Start sector | End sector
---------------------------------------------------------
1 | 0:00.00 | 5:35.35 | 0 | 25159
2 | 5:35.35 | 9:55.15 | 25160 | 69799
3 | 15:30.50 | 2:49.00 | 69800 | 82474
4 | 18:19.50 | 17:07.03 | 82475 | 159502
5 | 35:26.53 | 25:22.07 | 159503 | 273659
Track 1
Filename C:\EAC rips\01 - Push Pull.wav
Pre-gap length 0:00:02.00
Peak level 90.3 %
Extraction speed 1.2 X
Track quality 100.0 %
Test CRC 6E30A603
Copy CRC 6E30A603
Accurately ripped (confidence 3) [0181124C] (AR v1)
Copy OK
Track 2
Filename C:\EAC rips\02 - Zaki.wav
Pre-gap length 0:00:03.05
Peak level 94.4 %
Extraction speed 1.4 X
Track quality 100.0 %
Test CRC C5E70935
Copy CRC C5E70935
Accurately ripped (confidence 3) [B9211CA1] (AR v1)
Copy OK
Track 3
Filename C:\EAC rips\03 - Shout Song.wav
Pre-gap length 0:00:03.20
Peak level 87.3 %
Extraction speed 1.2 X
Track quality 99.9 %
Test CRC 9C4DCF6A
Copy CRC 9C4DCF6A
Accurately ripped (confidence 3) [C76F4BA6] (AR v1)
Copy OK
Track 4
Filename C:\EAC rips\04 - Something's Cookin'.wav
Pre-gap length 0:00:03.55
Peak level 94.4 %
Extraction speed 1.9 X
Track quality 100.0 %
Test CRC 2C4F0023
Copy CRC 2C4F0023
Accurately ripped (confidence 3) [FC50B1CE] (AR v1)
Copy OK
Track 5
Filename C:\EAC rips\05 - Chant.wav
Pre-gap length 0:00:04.43
Peak level 81.8 %
Extraction speed 2.3 X
Track quality 100.0 %
Test CRC C289F8DB
Copy CRC C289F8DB
Accurately ripped (confidence 3) [732AEEC3] (AR v1)
Copy OK
All tracks accurately ripped
No errors occurred
End of status report
---- CUETools DB Plugin V2.1.4
[CTDB TOCID: hs._aBIDUmIQLT5YgxHg4cXF9Ws-] found
Submit result: hs._aBIDUmIQLT5YgxHg4cXF9Ws- has been confirmed
Track | CTDB Status
1 | (3/3) Accurately ripped
2 | (3/3) Accurately ripped
3 | (3/3) Accurately ripped
4 | (2/3) Accurately ripped, or (1/3) differs in 48 samples @16:05:60
5 | (3/3) Accurately ripped
==== Log checksum 04F354464C062AB6F75C866AC04E5FBE40DB3832ABB7531CABF724845B9826C3 ====
 
Содержание индексной карты (.CUE)
 
Disc 1
REM GENRE Jazz
REM DATE 1977
REM DISCID 92107809
REM COMMENT "ExactAudioCopy v1.0b3"
PERFORMER "VA"
TITLE "Wildflowers: Loft Jazz New York 1976 (Disc 1)"
FILE "01 - Jays.wav" WAVE
TRACK 01 AUDIO
TITLE "Jays"
PERFORMER "Kalaparusha"
INDEX 01 00:00:00
TRACK 02 AUDIO
TITLE "New Times"
PERFORMER "Ken Mc Intyre"
INDEX 00 06:11:05
FILE "02 - New Times.wav" WAVE
INDEX 01 00:00:00
TRACK 03 AUDIO
TITLE "Over the Rainbow"
PERFORMER "Sunny Murray & The Untouchable Factor"
INDEX 00 07:45:25
FILE "03 - Over the Rainbow.wav" WAVE
INDEX 01 00:00:00
TRACK 04 AUDIO
TITLE "Rainbows"
PERFORMER "Sam Rivers"
INDEX 00 05:48:25
FILE "04 - Rainbows.wav" WAVE
INDEX 01 00:00:00
TRACK 05 AUDIO
TITLE "Uso Dance"
PERFORMER "Air"
INDEX 00 10:24:00
FILE "05 - Uso Dance.wav" WAVE
INDEX 01 00:00:00
TRACK 06 AUDIO
TITLE "The Need to Smile"
PERFORMER "Flight to Sanity"
INDEX 00 08:26:62
FILE "06 - The Need to Smile.wav" WAVE
INDEX 01 00:00:00
TRACK 07 AUDIO
TITLE "Naomi"
PERFORMER "Ken Mc Intyre"
INDEX 00 10:45:53
FILE "07 - Naomi.wav" WAVE
INDEX 01 00:00:00
TRACK 08 AUDIO
TITLE "73°-S Kelvin"
PERFORMER "Anthony Braxton"
INDEX 00 06:31:58
FILE "08 - 73°-S Kelvin.wav" WAVE
INDEX 01 00:00:00
TRACK 09 AUDIO
TITLE "And Then They Dance"
PERFORMER "Marion Brown"
INDEX 00 06:41:60
FILE "09 - And Then They Dance.wav" WAVE
INDEX 01 00:00:00
 
Disc 2
REM GENRE Jazz
REM DATE 1977
REM DISCID 760EC508
REM COMMENT "ExactAudioCopy v1.0b3"
PERFORMER "VA"
TITLE "Wildflowers: Loft Jazz New York 1976 (Disc 2)"
FILE "01 - Locomotif No. 6.wav" WAVE
TRACK 01 AUDIO
TITLE "Locomotif No. 6"
PERFORMER "Leo Smith & The New Delta Ahkri"
INDEX 01 00:00:00
TRACK 02 AUDIO
TITLE "Portrait of Frank Edward Weston"
PERFORMER "Randy Weston"
INDEX 00 06:24:23
FILE "02 - Portrait of Frank Edward Weston.wav" WAVE
INDEX 01 00:00:00
TRACK 03 AUDIO
TITLE "Clarity Two"
PERFORMER "Michael Jackson"
INDEX 00 09:17:50
FILE "03 - Clarity Two.wav" WAVE
INDEX 01 00:00:00
TRACK 04 AUDIO
TITLE "Black Robert"
PERFORMER "Dave Burrell"
INDEX 00 06:09:33
FILE "04 - Black Robert.wav" WAVE
INDEX 01 00:00:00
TRACK 05 AUDIO
TITLE "Blue Phase"
PERFORMER "Abdullah"
INDEX 00 05:43:60
FILE "05 - Blue Phase.wav" WAVE
INDEX 01 00:00:00
TRACK 06 AUDIO
TITLE "Short Short"
PERFORMER "Andrew Cyrille & Maono"
INDEX 00 12:35:20
FILE "06 - Short Short.wav" WAVE
INDEX 01 00:00:00
TRACK 07 AUDIO
TITLE "Tranquil Beauty"
PERFORMER "Hamiet Bluiett"
INDEX 00 06:57:10
FILE "07 - Tranquil Beauty.wav" WAVE
INDEX 01 00:00:00
TRACK 08 AUDIO
TITLE "Pensive"
PERFORMER "Julius Hemphill"
INDEX 00 05:45:45
FILE "08 - Pensive.wav" WAVE
INDEX 01 00:00:00
 
Disc 3
REM GENRE Jazz
REM DATE 1977
REM DISCID 2D0E4005
REM COMMENT "ExactAudioCopy v1.0b3"
PERFORMER "VA"
TITLE "Wildflowers: Loft Jazz New York 1976 (Disc 3)"
FILE "01 - Push Pull.wav" WAVE
TRACK 01 AUDIO
TITLE "Push Pull"
PERFORMER "Jimmy Lyons"
INDEX 01 00:00:00
TRACK 02 AUDIO
TITLE "Zaki"
PERFORMER "Oliver Lake"
INDEX 00 05:32:30
FILE "02 - Zaki.wav" WAVE
INDEX 01 00:00:00
TRACK 03 AUDIO
TITLE "Shout Song"
PERFORMER "David Murray"
INDEX 00 09:51:70
FILE "03 - Shout Song.wav" WAVE
INDEX 01 00:00:00
TRACK 04 AUDIO
TITLE "Something's Cookin'"
PERFORMER "Sunny Murray & The Untouchable Factor"
INDEX 00 02:45:20
FILE "04 - Something's Cookin'.wav" WAVE
INDEX 01 00:00:00
TRACK 05 AUDIO
TITLE "Chant"
PERFORMER "Roscoe Mitchell"
INDEX 00 17:02:35
FILE "05 - Chant.wav" WAVE
INDEX 01 00:00:00
Доп. информация: Recorded May 14-23, 1976 at Studio Rivbea, 24 Bond Street, New York, NY.
 
Состав
Disc 1
1. Jays
Kalaparusha – Tenor Sax
Chris White – Bass, Electric Bass
Jumma Santos – Drums
2. New Times
Ken Mc Intyre – Alto Sax
Richard Harper – Piano
Andrei Strobert – Multiple Percussion
Andy Vega – Conga
3. Over the Rainbow
Sunny Murray – Drums
Byard Lancaster – Alto Sax
David Murray – Tenor Sax
Khan Jamal – Vibes
Fred Hopkins – Bass
4. Rainbows
Sam Rivers – Soprano Sax
Jerome Hunter – Bass
Jerry Griffin – Drums
5. Uso Dance
Henry Threadgill – Alto Sax
Fred Hopkins – Bass
Steve McCall – Drums, Percussion
6. The Need to Smile
Harold Smith – Drums
Byard Lancaster – Tenor Sax
Art Bennett – Soprano Sax
Olu Dara – Trumpet
Solenius Smith – Piano
Benny Wilson – Bass
Don Moye – Conga
7. Naomi
Ken Mc Intyre – Flute
Richard Harper – Piano
Andy Vega – Conga, Percussion
Andrei Strobert – Multiple Percussion
8. 73°- S Kelvin
Anthony Braxton – Alto, Contrabass Sax, Clarinet
George Lewis – Trombone
Michael Jackson – Guitar
Fred Hopkins – Bass
Barry Altschul – Drums
Phillip Wilson – Percussion
9. And Then They Danced
Marion Brown – Alto Sax
Jack Gregg – Bass
Jumma Santos – Conga
Disc 2
1. Locomotif No. 6
Leo Smith – Trumpet
Oliver Lake – Alto Sax
Anthony Davis – Piano
Wes Brown – Bass
Paul Maddox + Stanley Crouch – Drums
2. Portrait of Frank Edward Weston
Randy Weston – Piano
Alex Blake – Bass
Azzedin Weston – Conga
3. Clarity Two
Michael Jackson – Acoustic Guitar
Oliver Lake – Soprano Sax, Flute
Fred Hopkins – Bass
Phillip Wilson – Drums
4. Black Robert
Dave Burrell – Piano
Stafford James – Bass
Harold White – Drums
5. Blue Phase
Ahmed Abdullah – Trumpet
Charles Brackeen – Tenor and Soprano Sax
Mashujaa – Guitar
Leroy Seals – Electric Bass
Rickie Evans – Acoustic Bass
Rashied Sinan – Drums
6. Short Short
Andrew Cyrille – Drums
Ted Daniel – Trumpet
David Ware – Tenor Sax
Lyle Atkinson – Bass
7. Tranquil Beauty
Hamiet Bluiett – Clarinet, Baritone Sax
Olu Dara – Trumpet
Butch Campbell + Billy Pastterson – Guitar
Juney Booth – Bass
Charles Bobo Shaw + Don Moye – Drums
8. Pensive
Julius Hemphill – Alto Sax
Abdul Wadud – Cello
Bern Nix – Guitar
Phillip Wilson – Drums
Don Moye – Percussion
Disc 3
1. Push Pull
Jimmy Lyons – Alto Sax
Karen Borca – Bassoon
Hayes Burnett – Bass
Henry Maxwell Letcher – Drums
2. Zaki
Oliver Lake – Alto Sax
Michael Jackson – Electric Guitar
Fred Hopkins – Bass
Phillip Wilson – Drums
3. Shout Song
David Murray – Tenor Sax
Olu Dara – Trumpet, Flugelhorn
Fred Hopkins – Bass
Stanley Crouch – Drums
4. Something’s Cookin’
Sunny Murray – Drums
David Murray – Tenor Sax
Byard Lancaster – Alto Sax, Flute
Khan Jamal – Vibes
Fred Hopkins – Bass
5. Chant
Roscoe Mitchell – Alto Sax
Jerome Cooper – Percussion, Saw, Drums
Don Moye – Drums
Any questions -> support@pro-jazz.com. По всем вопросам пишите -> support@pro-jazz.com
10:42
187
Нет комментариев. Ваш будет первым!