Вы используете незарегистрированную версию компонента "Вкладки"!

Поиск

(Free Jazz) Oliver Lake Trio (Michael Gregory Jackson, Pheeroan AkLaff) - Zaki (1979) {Hat Hut Records, hat ART CD 6113, Switzerland} - 1992, APE (image+.cue) lossless

(Free Jazz) Oliver Lake Trio (Michael Gregory Jackson, Pheeroan AkLaff) - Zaki (1979) {Hat Hut Records, hat ART CD 6113, Switzerland} - 1992, APE (image+.cue) lossless
Треклист:
Oliver Lake Trio - Zaki
Жанр: Free Jazz
Страна-производитель диска: Switzerland
Год издания диска: 1992
Издатель (лейбл): Hat Hut Records
Номер по каталогу: hat ART CD 6113
Аудио кодек: APE (*.ape)
Тип рипа: image+.cue
Битрейт аудио: lossless
Продолжительность: 00:56:41
Источник (релизер): barin99
Наличие сканов в содержимом раздачи: да
Треклист:
1. Zaki 24:39
2. Clicker 10:32
3. Shine 14:16
4. 5/1 5:27
5. Zaki 1:45
Live recording by Peter Pfister on September 1, 1979 at JAZZFESTIVAL WILLISAU '79; Festival organized by Niklaus Troxler.
Personnel:
Oliver Lake — Flute, Sax (Alto), Sax (Soprano)
Michael Gregory Jackson — Guitar (Electric)
Pheeroan AkLaff — Drums
 
Лог создания рипа (EAC Log)
Exact Audio Copy V0.99 prebeta 4 from 23. January 2008
EAC extraction logfile from 29. November 2009, 18:19
Oliver Lake / Zaki
Used drive : HL-DT-STRW/DVD GCC-4242N Adapter: 1 ID: 0
Read mode : Secure
Utilize accurate stream : Yes
Defeat audio cache : Yes
Make use of C2 pointers : No
Read offset correction : 102
Overread into Lead-In and Lead-Out : No
Fill up missing offset samples with silence : Yes
Delete leading and trailing silent blocks : No
Null samples used in CRC calculations : Yes
Used interface : Native Win32 interface for Win NT & 2000
Used output format : Internal WAV Routines
Sample format : 44.100 Hz; 16 Bit; Stereo
TOC of the extracted CD
Track | Start | Length | Start sector | End sector
---------------------------------------------------------
1 | 0:00.00 | 24:39.25 | 0 | 110949
2 | 24:39.25 | 10:32.50 | 110950 | 158399
3 | 35:12.00 | 14:16.62 | 158400 | 222661
4 | 49:28.62 | 5:27.38 | 222662 | 247224
5 | 54:56.25 | 1:45.50 | 247225 | 255149
Range status and errors
Selected range
Filename C:\_\EAC_Out\Out\Oliver Lake - Zaki\Oliver Lake - Zaki.wav
Peak level 92.2 %
Range quality 99.9 %
Copy CRC 4850E6C5
Copy OK
No errors occurred
AccurateRip summary
Track 1 not present in database
Track 2 not present in database
Track 3 not present in database
Track 4 not present in database
Track 5 not present in database
None of the tracks are present in the AccurateRip database
End of status report
 
Содержание индексной карты (.CUE)
REM GENRE Avantgarde
REM DATE 1979
REM DISCID 400D4A05
REM COMMENT "ExactAudioCopy v0.99pb4"
PERFORMER "Oliver Lake"
TITLE "Zaki"
FILE "Oliver Lake - Zaki.ape" WAVE
TRACK 01 AUDIO
TITLE "Zaki"
PERFORMER "Oliver Lake"
INDEX 01 00:00:00
TRACK 02 AUDIO
TITLE "Clicker"
PERFORMER "Oliver Lake"
INDEX 01 24:39:25
TRACK 03 AUDIO
TITLE "Shine"
PERFORMER "Oliver Lake"
INDEX 01 35:12:00
TRACK 04 AUDIO
TITLE "5/1"
PERFORMER "Oliver Lake"
INDEX 01 49:28:62
TRACK 05 AUDIO
TITLE "Zaki"
PERFORMER "Oliver Lake"
INDEX 01 54:56:25
 
AMG
"Zaki captures the Oliver Lake Trio live at the 1979 Willisau Jazz Festival. Lake was also performing at the festival as a member of the World Saxophone Quartet and was asked to have his trio, which had been performing together for about three years, participate as well. This trio, sans bass, features Michael Gregory Jackson on electric guitar and Pheeroan Aklaff on drums. Throughout the 78 minutes of spontaneous free jazz, many risks are taken, sometimes rewarding, occasionally repetitious. This is especially the case on the nearly 24-minute "Zaki," which loses the thread about halfway through. Lake triples between alto, tenor, and soprano saxophones."
По всем вопросам пишите личное сообщение пользователю M0p94ok.
13:15
312
Нет комментариев. Ваш будет первым!