Вы используете незарегистрированную версию компонента "Вкладки"!

Поиск

(Free Jazz) Ivo Perelman, Dominic Duval, Brian Wilson - Mind Games - 2009, FLAC (tracks+.cue), lossless

(Free Jazz) Ivo Perelman, Dominic Duval, Brian Wilson - Mind Games - 2009, FLAC (tracks+.cue), lossless
Треклист:
Ivo Perelman, Dominic Duval, Brian Wilson / Mind Games
Жанр: Free Jazz
Страна-производитель диска: Великобритания
Год издания диска: 2009
Издатель (лейбл): Leo Records
Номер по каталогу: CD LR 547
Страна: США
Аудиокодек: FLAC (*.flac)
Тип рипа: tracks+.cue
Битрейт аудио: lossless
Продолжительность: 1:01:28
Источник (релизер): другой трекер (iwals)
Наличие сканов в содержимом раздачи: да
Треклист:
1. Mind Games
2. Primal Defense
3. Musical Line
4. Grateful For Life
5. G.S. Farewell
recorded at parkwest studios, brooklyn, ny on 18 november 2008
 
Лог создания рипа
Exact Audio Copy V0.99 prebeta 4 from 23. January 2008
EAC extraction logfile from 19. December 2009, 18:23
Ivo Perelman Trio / Mind Games
Used drive : HL-DT-STBDDVDRW GGC-H20L Adapter: 1 ID: 0
Read mode : Secure
Utilize accurate stream : Yes
Defeat audio cache : Yes
Make use of C2 pointers : No
Read offset correction : 667
Overread into Lead-In and Lead-Out : No
Fill up missing offset samples with silence : Yes
Delete leading and trailing silent blocks : No
Null samples used in CRC calculations : Yes
Used interface : Native Win32 interface for Win NT & 2000
Gap handling : Appended to previous track
Used output format : User Defined Encoder
Selected bitrate : 768 kBit/s
Quality : High
Add ID3 tag : No
Command line compressor : D:\Audio\FLAC\flac.exe
Additional command line options : -6 -V -T "ARTIST=%a" -T "TITLE=%t" -T "ALBUM=%g" -T "DATE=%y" -T "TRACKNUMBER=%n" -T "GENRE=%m" -T "COMMENT=%e" %s -o %d
TOC of the extracted CD
Track | Start | Length | Start sector | End sector
---------------------------------------------------------
1 | 0:00.00 | 8:43.00 | 0 | 39224
2 | 8:43.00 | 15:15.14 | 39225 | 107863
3 | 23:58.14 | 7:36.48 | 107864 | 142111
4 | 31:34.62 | 3:24.37 | 142112 | 157448
5 | 34:59.24 | 26:28.25 | 157449 | 276573
Track 1
Filename E:\New Rip\Ivo Perelman Trio - Mind Games\01 - Mind Games.wav
Pre-gap length 0:00:02.00
Peak level 100.0 %
Track quality 99.9 %
Test CRC 0F236D05
Copy CRC 0F236D05
Track not present in AccurateRip database
Copy OK
Track 2
Filename E:\New Rip\Ivo Perelman Trio - Mind Games\02 - Primal Defense.wav
Pre-gap length 0:00:03.00
Peak level 100.0 %
Track quality 100.0 %
Test CRC 0D6919C7
Copy CRC 0D6919C7
Track not present in AccurateRip database
Copy OK
Track 3
Filename E:\New Rip\Ivo Perelman Trio - Mind Games\03 - Musical Line.wav
Pre-gap length 0:00:03.00
Peak level 100.0 %
Track quality 100.0 %
Test CRC 2B800C7A
Copy CRC 2B800C7A
Track not present in AccurateRip database
Copy OK
Track 4
Filename E:\New Rip\Ivo Perelman Trio - Mind Games\04 - Grateful for Life.wav
Pre-gap length 0:00:03.00
Peak level 100.0 %
Track quality 100.0 %
Test CRC 234623FE
Copy CRC 234623FE
Track not present in AccurateRip database
Copy OK
Track 5
Filename E:\New Rip\Ivo Perelman Trio - Mind Games\05 - G.S. Farewell.wav
Pre-gap length 0:00:03.00
Peak level 100.0 %
Track quality 100.0 %
Test CRC 16BEB6DB
Copy CRC 16BEB6DB
Track not present in AccurateRip database
Copy OK
None of the tracks are present in the AccurateRip database
No errors occurred
End of status report
 
Содержание индексной карты (.CUE)
REM GENRE Jazz
REM DATE 2009
REM DISCID 330E6705
REM COMMENT "ExactAudioCopy v0.99pb4"
PERFORMER "Ivo Perelman Trio "
TITLE "Mind Games"
FILE "01 - Mind Games.wav" WAVE
TRACK 01 AUDIO
TITLE "Mind Games"
PERFORMER "Ivo Perelman Trio "
FLAGS DCP
INDEX 01 00:00:00
TRACK 02 AUDIO
TITLE "Primal Defense"
PERFORMER "Ivo Perelman Trio "
FLAGS DCP
INDEX 00 08:40:00
FILE "02 - Primal Defense.wav" WAVE
INDEX 01 00:00:00
TRACK 03 AUDIO
TITLE "Musical Line"
PERFORMER "Ivo Perelman Trio "
FLAGS DCP
INDEX 00 15:12:14
FILE "03 - Musical Line.wav" WAVE
INDEX 01 00:00:00
TRACK 04 AUDIO
TITLE "Grateful for Life"
PERFORMER "Ivo Perelman Trio "
FLAGS DCP
INDEX 00 07:33:48
FILE "04 - Grateful for Life.wav" WAVE
INDEX 01 00:00:00
TRACK 05 AUDIO
TITLE "G.S. Farewell"
PERFORMER "Ivo Perelman Trio "
FLAGS DCP
INDEX 00 03:21:37
FILE "05 - G.S. Farewell.wav" WAVE
INDEX 01 00:00:00
 
Лог проверки качества
AUDIOCHECKER v2.0 beta (build 457) - by Dester - opdester@freemail.hu
~~~~~~~~~~~~~~~~~~~~~~~~~~~~~~~~~~
-=== DO NOT EDIT THIS FILE! ===-
Path: ...\mind games 2009
1 -=- 01 - Mind Games.flac -=- MPEG (95%)
2 -=- 02 - Primal Defense.flac -=- MPEG (95%)
3 -=- 03 - Musical Line.flac -=- MPEG (95%)
4 -=- 04 - Grateful for Life.flac -=- CDDA (100%)
5 -=- 05 - G.S. Farewell.flac -=- MPEG (95%)
Summary 24,00% CDDA
41609764
 
Скриншот спектра частот
 
Состав
Ivo Perelman: tenor saxophone
Dominic Duval: bass
Brian Willson: drums
По всем вопросам пишите личное сообщение пользователю M0p94ok.
13:15
216
Нет комментариев. Ваш будет первым!