Вы используете незарегистрированную версию компонента "Вкладки"!

Поиск

(Contemporary Jazz, Modern Jazz) John Escreet - Don't Fight the Inevitable - 2010, FLAC (tracks+.cue), lossless

Треклист:
John Escreet / Don't Fight the Inevitable
Жанр: Contemporary Jazz, Modern Jazz
Год издания диска: 2010
Издатель (лейбл): Mythology Records
Номер по каталогу: # MR0007
Страна: Doncaster, England
Аудиокодек: FLAC (*.flac)
Тип рипа: tracks+.cue
Битрейт аудио: lossless
Продолжительность: 01:00:52
Источник (релизер): Ira
Наличие сканов в содержимом раздачи: нет
Треклист:
01. Civilization On Trial [8:40]
02. Don't Fight the Inevitable [11:47]
03. Soundscape [3:10]
04. Magical Chemical (For the Future) [12:47]
05. Charlie in the Parker [3:49]
06. Trouble and Activity [7:40]
07. Gone but Not Forgotten [2:50]
08. Avaricious World [10:09]
 
Лог создания рипа
X Lossless Decoder version 20101212 (126.2)
XLD extraction logfile from 2011-01-29 21:56:36 -0500
John Escreet / Don't Fight the Inevitable
Used drive : MATSHITA DVD-R UJ-867 (revision HA13)
Ripper mode : XLD Secure Ripper
Disable audio cache : OK for the drive with a cache less than 1375KiB
Make use of C2 pointers : NO
Read offset correction : 102
Max retry count : 100
Gap status : Analyzed, Appended
TOC of the extracted CD
Track | Start | Length | Start sector | End sector
---------------------------------------------------------
1 | 00:00:00 | 08:40:06 | 0 | 39005
2 | 08:40:06 | 11:47:67 | 39006 | 92097
3 | 20:27:73 | 03:10:03 | 92098 | 106350
4 | 23:38:01 | 12:48:00 | 106351 | 163950
5 | 36:26:01 | 03:49:42 | 163951 | 181167
6 | 40:15:43 | 07:40:71 | 181168 | 215738
7 | 47:56:39 | 02:50:40 | 215739 | 228528
8 | 50:47:04 | 10:09:60 | 228529 | 274263
AccurateRip Summary
Disc not found in AccurateRip DB.
All Tracks
Album gain : -5.77 dB
Peak : 0.999969
Statistics
Read error : 0
Jitter error (maybe fixed) : 0
Retry sector count : 0
Damaged sector count : 0
Track 01
Filename : /Volumes/LaCie/Music/FLAC files/John Escreet - Don't fight the inevitable/01 - Civilization On Trial.flac
Pre-gap length : 00:02:00
Track gain : -6.80 dB
Peak : 0.999969
CRC32 hash (test run) : 5BCABE28
CRC32 hash : 5BCABE28
CRC32 hash (skip zero) : 25C0C4C9
AccurateRip signature : 17D2FB73
->Track not present in AccurateRip database.
Statistics
Read error : 0
Jitter error (maybe fixed) : 0
Retry sector count : 0
Damaged sector count : 0
Track 02
Filename : /Volumes/LaCie/Music/FLAC files/John Escreet - Don't fight the inevitable/02 - Don't Fight The Inevitable.flac
Pre-gap length : 00:02:00
Track gain : -5.13 dB
Peak : 0.977417
CRC32 hash (test run) : 648711CD
CRC32 hash : 648711CD
CRC32 hash (skip zero) : 2C05B413
AccurateRip signature : 50A52438
->Track not present in AccurateRip database.
Statistics
Read error : 0
Jitter error (maybe fixed) : 0
Retry sector count : 0
Damaged sector count : 0
Track 03
Filename : /Volumes/LaCie/Music/FLAC files/John Escreet - Don't fight the inevitable/03 - Soundscape.flac
Pre-gap length : 00:02:00
Track gain : -0.10 dB
Peak : 0.975983
CRC32 hash (test run) : 23AF949E
CRC32 hash : 23AF949E
CRC32 hash (skip zero) : B9AAB385
AccurateRip signature : 5DBAB121
->Track not present in AccurateRip database.
Statistics
Read error : 0
Jitter error (maybe fixed) : 0
Retry sector count : 0
Damaged sector count : 0
Track 04
Filename : /Volumes/LaCie/Music/FLAC files/John Escreet - Don't fight the inevitable/04 - Magic Chemical (for The Future).flac
Pre-gap length : 00:02:00
Track gain : -5.63 dB
Peak : 0.981873
CRC32 hash (test run) : 17C3C61C
CRC32 hash : 17C3C61C
CRC32 hash (skip zero) : D7F975BA
AccurateRip signature : 04D80E7C
->Track not present in AccurateRip database.
Statistics
Read error : 0
Jitter error (maybe fixed) : 0
Retry sector count : 0
Damaged sector count : 0
Track 05
Filename : /Volumes/LaCie/Music/FLAC files/John Escreet - Don't fight the inevitable/05 - Charlie In The Parker.flac
Pre-gap length : 00:02:00
Track gain : -5.49 dB
Peak : 0.977386
CRC32 hash (test run) : 957ED8EA
CRC32 hash : 957ED8EA
CRC32 hash (skip zero) : 1365A594
AccurateRip signature : A0916D0E
->Track not present in AccurateRip database.
Statistics
Read error : 0
Jitter error (maybe fixed) : 0
Retry sector count : 0
Damaged sector count : 0
Track 06
Filename : /Volumes/LaCie/Music/FLAC files/John Escreet - Don't fight the inevitable/06 - Trouchle and Activity.flac
Pre-gap length : 00:02:00
Track gain : -5.55 dB
Peak : 0.977539
CRC32 hash (test run) : 6577A0C8
CRC32 hash : 6577A0C8
CRC32 hash (skip zero) : EAC5C385
AccurateRip signature : E93C43C2
->Track not present in AccurateRip database.
Statistics
Read error : 0
Jitter error (maybe fixed) : 0
Retry sector count : 0
Damaged sector count : 0
Track 07
Filename : /Volumes/LaCie/Music/FLAC files/John Escreet - Don't fight the inevitable/07 - Gone But Not Forgotten.flac
Pre-gap length : 00:02:00
Track gain : -1.60 dB
Peak : 0.604431
CRC32 hash (test run) : 24232FB2
CRC32 hash : 24232FB2
CRC32 hash (skip zero) : F91AD423
AccurateRip signature : 9DAD5F48
->Track not present in AccurateRip database.
Statistics
Read error : 0
Jitter error (maybe fixed) : 0
Retry sector count : 0
Damaged sector count : 0
Track 08
Filename : /Volumes/LaCie/Music/FLAC files/John Escreet - Don't fight the inevitable/08 - Avaricious World.flac
Pre-gap length : 00:02:00
Track gain : -6.08 dB
Peak : 0.980072
CRC32 hash (test run) : 7BB5E3E3
CRC32 hash : 7BB5E3E3
CRC32 hash (skip zero) : D63C4C21
AccurateRip signature : 2C869D19
->Track not present in AccurateRip database.
Statistics
Read error : 0
Jitter error (maybe fixed) : 0
Retry sector count : 0
Damaged sector count : 0
No errors occurred
End of status report
 
Содержание индексной карты (.CUE)
TITLE "Don't Fight The Inevitable"
PERFORMER "John Escreet Project"
REM DATE "2010"
REM DISCID 6A0E4808
FILE "01 - Civilization On Trial.wav" WAVE
TRACK 01 AUDIO
TITLE "Civilization On Trial"
SONGWRITER "John Escreet"
INDEX 01 00:00:00
TRACK 02 AUDIO
TITLE "Don't Fight The Inevitable"
SONGWRITER "John Escreet"
INDEX 00 08:38:06
FILE "02 - Don't Fight The Inevitable.wav" WAVE
INDEX 01 00:00:00
TRACK 03 AUDIO
TITLE "Soundscape"
SONGWRITER "John Escreet/David Binney"
INDEX 00 11:45:67
FILE "03 - Soundscape.wav" WAVE
INDEX 01 00:00:00
TRACK 04 AUDIO
TITLE "Magic Chemical (For The Future)"
SONGWRITER "John Escreet"
INDEX 00 03:08:03
FILE "04 - Magic Chemical (For The Future).wav" WAVE
INDEX 01 00:00:00
TRACK 05 AUDIO
TITLE "Charlie in the Parker"
SONGWRITER "Muhal Richard Abrams"
INDEX 00 12:46:00
FILE "05 - Charlie in the Parker.wav" WAVE
INDEX 01 00:00:00
TRACK 06 AUDIO
TITLE "Trouble and Activity"
SONGWRITER "John Escreet"
INDEX 00 03:47:42
FILE "06 - Trouble and Activity.wav" WAVE
INDEX 01 00:00:00
TRACK 07 AUDIO
TITLE "Gone But Not Forgotten"
SONGWRITER "John Escreet/David Binney"
INDEX 00 07:38:71
FILE "07 - Gone But Not Forgotten.wav" WAVE
INDEX 01 00:00:00
TRACK 08 AUDIO
TITLE "Avaricious World"
SONGWRITER "John Escreet"
INDEX 00 02:48:40
FILE "08 - Avaricious World.wav" WAVE
INDEX 01 00:00:00
 
Лог проверки качества
AUDIOCHECKER v2.0 beta (build 457) - by Dester - opdester@freemail.hu
~~~~~~~~~~~~~~~~~~~~~~~~~~~~~~~~~~
-=== DO NOT EDIT THIS FILE! ===-
Path: ...\John Escreet - Don't fight the inevitable [2010]
1 -=- 01 - Civilization On Trial.flac -=- CDDA (100%)
2 -=- 02 - Don't Fight The Inevitable.flac -=- CDDA (100%)
3 -=- 03 - Soundscape.flac -=- CDDA (100%)
4 -=- 04 - Magic Chemical (for The Future).flac -=- CDDA (100%)
5 -=- 05 - Charlie In The Parker.flac -=- CDDA (100%)
6 -=- 06 - Trouchle and Activity.flac -=- CDDA (100%)
7 -=- 07 - Gone But Not Forgotten.flac -=- CDDA (100%)
8 -=- 08 - Avaricious World.flac -=- CDDA (100%)
Summary 100,00% CDDA
61466388
 
Об исполнителе (группе)
John Escreet - Pianist/composer b. Doncaster, England, 1984.
Since moving to New York in 2006, John Escreet has had a powerful impact, and has emerged as one of the most creative and original pianists on the music scene there. He is highly revered amongst his peers for his creativity, openness and for his own original music, which draws inspiration from many different sources, and encompasses them all and much more.
He leads his own group ‘The John Escreet Project’ which is described by the New York Times as “a superb band”, and which features some of the most exciting and forward-thinking improvising musical talents on the New York jazz scene - David Binney (alto saxophone), Ambrose Akinmusire (trumpet), Matt Brewer (double bass) and Nasheet Waits (drums).
His second album ‘Don’t Fight The Inevitable’ was recorded with this group, and released in June 2010 on Mythology Records, and quickly received widespread critical acclaim. Prior to that, John’s highly anticipated debut album ‘Consequences’ was released in September 2008, and received a similar avalanche of praise and attention from musicians and critics alike.
Another group led by Escreet is a Quartet, featuring David Binney on alto saxophone and electronics, Wayne Krantz on guitar and Marcus Gilmore on drums. Escreet’s third album is with this group: THE AGE WE LIVE IN is released on June 14th 2011. In addition to the musicians in this quartet, this groundbreaking new album also features a string section, brass section, percussion, electronics and more.
In 2010, John premiered the new John Escreet Trio, featuring John Hébert on bass and longtime collaborator Tyshawn Sorey on drums. The group debuted at The Jazz Gallery on November 4th 2010, which was preceded by a WBGO studio session. Hébert and Sorey are the perfect partners to explore Escreet’s musical aesthetic, direction and concept in a more exposed trio setting. The group is set to record in late 2011.
John has worked frequently in David Binney's regular groups in NYC, and was also part of the world premier performance of the saxophonist’s new Big Band at the Jazz
Gallery. As a sideman, John has also worked with artists such as Ambrose Akinmusire, Adam Rogers, Robin Eubanks, Tyshawn Sorey, Donny McCaslin, and many more.
It is safe to say that John Escreet has long outgrown his reputation as an ‘up-and-coming’ artist, and has now emerged as one of the most groundbreaking, unique and important voices as a pianist/composer in music today.
“On “Don’t Fight the Inevitable”, an ambitious second album, the pianist John Escreet seems to be thinking about where jazz can go next." - Ben Ratliff, The New York Times
"Don't Fight the Inevitable is a bracing disc that confirms Escreet's emergence as a challenging and eloquent artist." - The Ottawa Citizen
“Pianist John Escreet’s recent debut Consequences signals the jumpstart of a new voice in jazz.” – Downbeat
“John Escreet, a British jazz pianist in his mid-20s, has no problem communicating drama. "Consequences," his highly accomplished debut, opens with a half-hour composition — "The Suite of Consequence" — that divides almost imperceptibly into three parts. The piece at large is a whorl of high-impact quintet engagement, combustible solo digressions, calmly contemplative passages and flashes of mounting suspense. A lot happens there, and each moment carries its own sharp glint of conviction.” – Nate Chinen, The New York Times
“Escreet has quickly matured into one of the most original exponents of that highly disciplined, melodically and rhythmically intricate contemporary jazz style.” – John Fordham, The Guardian (UK)
“A commanding performer who comps and solos with the percussive flamboyance of Jason Moran (who wrote the recording’s liner notes), Escreet's imaginative pen brings forth omnivorous music… Cerebral, gutsy, and filled with personality, Consequences is a discriminating work from a promising talent and one of the brightest releases of 2008.” – All About Jazz.com
“...immensely assured [piano playing]... His technique is impeccable, glistening cascades of notes...” - The Times (UK)
“Escreet, who is British but Brooklyn-based, smartly and ambitiously rides the leading edge of contemporary jazz.” – The Ottawa Citizen
“… John Escreet is a talented fellow indeed… Even with Chet’s strong tenor playing – both lyrical and modern, melodic and virtuosic – it was Escreet who made the most lasting impression on me. The quartet had the good sense to leave the young pianist alone to play unaccompanied on nearly every song. The result was that his singular densely-packed harmonic and rhythmic playing was heard unadulterated. With the rhythmic intensity of Jason Moran and the harmonic rule-breaking of Cecil Taylor, this young pianist was a thrill to hear in our own city.” – The Montreal Gazette
“Escreet is as original a pianist as he is composer - he has the composer's structural awareness, and a degree of classical training behind him, one suspects from his arched hands and harmonically complex, fast, cliche-less solos, but he also has the percussive nature of jazz piano in his heart, beating out tricky rhythms with confined harmonic content in percussion battles with the drums. Overall it's refreshing to hear a pianist and be unable to identify other more famous pianists as clear influences.” - The Jazz Breakfast (UK)
 
Об альбоме (сборнике)
Don’t Fight The Inevitable is John Escreet’s eagerly awaited follow up to his award-winning debut album Consequences. It features the same personnel as that album, with the exception of a switch in the drum chair - David Binney (alto saxophone/electronics), Ambrose Akinmusire (trumpet), Matt Brewer (double bass) and Nasheet Waits (drums).
The album contains all-new original material composed by John, with the only cover on the album being an imaginative reinterpretation of Muhal Richard Abram’s Charlie In The Parker.
The album continues John’s concept of documenting a working band – it was recorded in NYC immediately upon returning from a nine-date European tour. “I wrote the new material specifically for this project, with these guys in mind”, says John. “Rehearsing the material in NYC, and then playing it one the road for nine consecutive nights really allowed us to explore and get inside the music. It opened up in ways I had never even imagined, and it granted us the kind of freedom that is only possible once everybody knows the music REALLY well. I think this definitely comes across on the album. When we hit the studio it almost felt like we were still on tour – in fact, the opening track of the album is the very first thing we laid down in the studio – it has that ‘fresh-from the-road’ vibe.”
Don’t Fight The Inevitable reflects John’s broad range of musical tastes and influences, as well as his ever-evolving skills as a highly original composer/pianist at the forefront of contemporary music.
“ Pianist John Escreet’s recent debut Consequences signals the jumpstart of a new voice in jazz.” – Downbeat
“A Superb band” – The New York Times
 
Состав
Muhal Richard Abrams - Composer
Ambrose Akinmusire - Trumpet
David Binney - Composer, Electronics, Producer, Sax (Alto)
Matt Brewer - Double Bass
Jon Escreet - Composer, Piano, Producer
По всем вопросам пишите личное сообщение пользователю M0p94ok.
13:14
191
Нет комментариев. Ваш будет первым!