Вы используете незарегистрированную версию компонента "Вкладки"!

Поиск

(Avant-Garde Jazz, Free Improvisation) Lauren Newton & Thomas Horstmann - Art Is... - 1994, APE (image+.cue), lossless

Треклист:
Lauren Newton & Thomas Horstmann - Art is...
Жанр: Avant-Garde Jazz, Free Improvisation
Страна-производитель диска: UK
Год издания диска: 1994
Издатель (лейбл): Leo Records
Номер по каталогу: 219
Аудиокодек: APE (*.ape)
Тип рипа: image+.cue
Битрейт аудио: lossless
Продолжительность: 48:27
Наличие сканов в содержимом раздачи: да
Источник (релизер): avaxhome, thanks basa005
Треклист:
1. Innocence Of Romanticism
2. Art Is...
3. Tap Dance
4. Solitude
5. Blues For Klaus
6. Before The Fact
7. After The Fact
8. HIM
9. HERsHE
Lauren Newton - Voice, Various Toys
Thomas Horstmann - Guitar, Synthesizer
 
Лог EAC
Exact Audio Copy V0.99 prebeta 4 from 23. January 2008
EAC extraction logfile from 8. June 2011, 14:56
Lauren Newton and Thomas Horstmann / Art is ...
Used drive : TSSTcorpCDDVDW SE-S204N Adapter: 2 ID: 0
Read mode : Secure
Utilize accurate stream : Yes
Defeat audio cache : Yes
Make use of C2 pointers : No
Read offset correction : 6
Overread into Lead-In and Lead-Out : No
Fill up missing offset samples with silence : Yes
Delete leading and trailing silent blocks : No
Null samples used in CRC calculations : Yes
Used interface : Native Win32 interface for Win NT & 2000
Used output format : Internal WAV Routines
Sample format : 44.100 Hz; 16 Bit; Stereo
TOC of the extracted CD
Track | Start | Length | Start sector | End sector
---------------------------------------------------------
1 | 0:00.00 | 7:19.62 | 0 | 32986
2 | 7:19.62 | 3:27.03 | 32987 | 48514
3 | 10:46.65 | 4:15.32 | 48515 | 67671
4 | 15:02.22 | 3:43.03 | 67672 | 84399
5 | 18:45.25 | 7:42.20 | 84400 | 119069
6 | 26:27.45 | 12:14.17 | 119070 | 174136
7 | 38:41.62 | 0:56.53 | 174137 | 178389
8 | 39:38.40 | 4:32.60 | 178390 | 198849
9 | 44:11.25 | 4:16.12 | 198850 | 218061
Range status and errors
Selected range
Filename C:\avaxhome\Lauren Newton and Thomas Horstmann - Art is ....wav
Peak level 99.8 %
Range quality 100.0 %
Copy CRC 8D463D70
Copy OK
No errors occurred
AccurateRip summary
Track 1 not present in database
Track 2 not present in database
Track 3 not present in database
Track 4 not present in database
Track 5 not present in database
Track 6 not present in database
Track 7 not present in database
Track 8 not present in database
Track 9 not present in database
None of the tracks are present in the AccurateRip database
End of status report
 
Содержание индексной карты (.CUE)
REM DISCID 730B5B09
REM COMMENT "ExactAudioCopy v0.99pb4"
PERFORMER "Lauren Newton and Thomas Horstmann"
TITLE "Art is ..."
FILE "Lauren Newton and Thomas Horstmann - Art is ....APE" WAVE
TRACK 01 AUDIO
TITLE "Innocence of Romanticism"
PERFORMER "Lauren Newton and Thomas Horstmann"
INDEX 01 00:00:00
TRACK 02 AUDIO
TITLE "Art Is ..."
PERFORMER "Lauren Newton and Thomas Horstmann"
INDEX 00 07:19:59
INDEX 01 07:19:62
TRACK 03 AUDIO
TITLE "Tap dance"
PERFORMER "Lauren Newton and Thomas Horstmann"
INDEX 00 10:46:60
INDEX 01 10:46:65
TRACK 04 AUDIO
TITLE "Solitude"
PERFORMER "Lauren Newton and Thomas Horstmann"
INDEX 01 15:02:22
TRACK 05 AUDIO
TITLE "Blues for Klaus"
PERFORMER "Lauren Newton and Thomas Horstmann"
INDEX 00 18:45:24
INDEX 01 18:45:25
TRACK 06 AUDIO
TITLE "Before the fact"
PERFORMER "Lauren Newton and Thomas Horstmann"
INDEX 00 26:27:44
INDEX 01 26:27:45
TRACK 07 AUDIO
TITLE "After the fact"
PERFORMER "Lauren Newton and Thomas Horstmann"
INDEX 01 38:41:62
TRACK 08 AUDIO
TITLE "HIM"
PERFORMER "Lauren Newton and Thomas Horstmann"
INDEX 01 39:38:40
TRACK 09 AUDIO
TITLE "HERsHE"
PERFORMER "Lauren Newton and Thomas Horstmann"
INDEX 01 44:11:25
 
Review
Recorded live in the studio with audience by the lead singer of the world famous VIENNA ART ORCHESTRA Lauren Newton and a guitar/synthesizer wizard Thomas Horstmann. However, this time Lauren and Thomas perform their own composition/improvisations. Breathtaking vocal technique, expressive spontaneity and interactive improvisation. Notes by Garry Hagberg. Cover painting by Lauren Newton.
Points should be taken off the review of this record for the unbelievable pretentiousness of its liner notes, and the way they explain away each track. But, instead, the blame will be placed at the feet of Leo Feigin rather than the artists. This is, in a historical sense, not such a revolutionary meeting; guitar and voice have been intersecting, improvising, and uniting with each other since the instrument came into being. However, it is an amazing meeting, given how intimate, fun, and wide-ranging these explorations are in a concert setting. According to Henry James, the definition of art is "the thing that cannot be repeated or recreated." This disc qualifies. Using an electric guitar with a bevy of electronic effects, Thomas Horstmann challenges and supports vocalist Lauren Newton and her wagon full of self-described "toys" in seven originals and two covers, including an all but unrecognizable rendition of Ellington's "Solitude" (Newton always includes one standard to prove she's for real, which seems derived from an inferiority complex because she's a genius). These pieces tax every notion of what the separation of these two entities is about, and then blurs that distinction every chance the pair gets. There are places that are virtually indecipherable as to who is doing what. Especially since there is only one "song" here, it sounds artsy fartsy, doesn't it? It is and it isn't. This is art; it can't be recreated. But it is art that is funny and warm and inviting to the listener. It is inspiring and beautiful and full of surprises. Which makes it "good" art, right? The answer is an undeniable "yes."
Томас Хорстманн - немецкий гитарист и композитор. Родился в Мюнстере в 1951 году. Начал играть с середины 60-х в местных рок-группах; затем изучал классическую гитару в штутгартской Hochschule für Musik und darstellende Kunst (1972-75), после этого пару лет отыграл в “Frederic Rabold Crew“. В 1977 Томас знакомится с Лорен Ньютон, с которой его надолго свяжут творческие узы, и вместе с ней и еще несколькими музыкантами организует группу “ Choice“. В конце 70-х Хорстманн уехал в США, где выступал с концертами и преподавал в Lane Community College, шт. Орегон. Вернувшись на родину он основал The New Jazz Corporation, работал на радио, сотрудничал с Steve Lockwood, Uli Scherer, Atlantic Jazz Trio и др. Писал музыку для Театра танца во Фрайбурге, а также к балету “ Aetheora“, выпустил три "лидерских" альбома. В 1991-ом Томас Хорстманн получил награду “ Musik Kreativ“ за сольную программу "Музыка для печального танцора".
О Лорен Ньютон: здесь
Any questions -> support@pro-jazz.com. По всем вопросам пишите -> support@pro-jazz.com
13:13
166
Нет комментариев. Ваш будет первым!