Вы используете незарегистрированную версию компонента "Вкладки"!

Поиск

(Free Jazz, Free Improvisation) Peter Brotzmann, Shoji Hano - Funny Rat - 2003, FLAC (tracks+.cue), lossless

(Free Jazz, Free Improvisation) Peter Brotzmann, Shoji Hano - Funny Rat - 2003, FLAC (tracks+.cue), lossless
Треклист:
Peter Brötzmann, Shoji Hano / Funny Rat
Жанр: Free Jazz, Free Improvisation
Страна-производитель диска: Япония
Год издания диска: 2003
Издатель (лейбл): Improvised Music from Japan
Номер по каталогу: IMJ-512
Страна: Германия, Япония
Аудиокодек: FLAC (*.flac)
Тип рипа: tracks+.cue
Битрейт аудио: lossless
Продолжительность: 1:12:26
Источник (релизер): вот.сиди (Avarance)
Наличие сканов в содержимом раздачи: нет
Треклист:
1. Funny Rat 1 (24:42)
2. Snake and Sheep (11:16)
3. We All Like Mountain Rabbit (18:12)
4. Funny Rat 3 (5:47)
5. Funny Rat 2 (12:21)

Recorded live by Tsutomu Suto (morgue-sha) at Aku Aku, Tsukuba, October 10, 1991
 
Лог создания рипа
Exact Audio Copy V0.99 prebeta 5 from 4. May 2009
EAC extraction logfile from 8. June 2011, 15:52
Peter Brцtzmann & Shoji Hano / Funny Rat
Used drive : HL-DT-STDVDRAM GT30N Adapter: 0 ID: 0
Read mode : Secure
Utilize accurate stream : Yes
Defeat audio cache : Yes
Make use of C2 pointers : No
Read offset correction : 103
Overread into Lead-In and Lead-Out : No
Fill up missing offset samples with silence : Yes
Delete leading and trailing silent blocks : No
Null samples used in CRC calculations : Yes
Used interface : Native Win32 interface for Win NT & 2000
Gap handling : Appended to previous track
Used output format : L3Enc MP3 Encoder & Compatible
Selected bitrate : 320 kBit/s (Not available for all encoder)
Quality : High
Add ID3 tag : No
Command line compressor : C:\Program Files (x86)\Exact Audio Copy\Flac\flac.exe
Additional command line options : -8 -T "artist=%a" -T "title=%t" -T "album=%g" -T "date=%y" -T "tracknumber=%n" -T "genre=%m" %s
TOC of the extracted CD
Track | Start | Length | Start sector | End sector
---------------------------------------------------------
1 | 0:00.00 | 24:42.40 | 0 | 111189
2 | 24:42.40 | 11:19.20 | 111190 | 162134
3 | 36:01.60 | 18:12.13 | 162135 | 244047
4 | 54:13.73 | 5:50.41 | 244048 | 270338
5 | 60:04.39 | 12:21.26 | 270339 | 325939
Track 1
Filename C:\EACRips\Peter Brцtzmann & Shoji Hano - 2003 - Funny Rat\01 - Funny Rat 1.wav
Pre-gap length 0:00:02.00
Peak level 94.4 %
Track quality 100.0 %
Test CRC 54A2EC43
Copy CRC 54A2EC43
Track not present in AccurateRip database
Copy OK
Track 2
Filename C:\EACRips\Peter Brцtzmann & Shoji Hano - 2003 - Funny Rat\02 - Snake and Sheep.wav
Peak level 85.9 %
Track quality 100.0 %
Test CRC 47A7008F
Copy CRC 47A7008F
Track not present in AccurateRip database
Copy OK
Track 3
Filename C:\EACRips\Peter Brцtzmann & Shoji Hano - 2003 - Funny Rat\03 - We All Like Mountain Rabbit.wav
Pre-gap length 0:00:02.60
Peak level 94.4 %
Track quality 99.9 %
Test CRC 9EC3D0DF
Copy CRC 9EC3D0DF
Track not present in AccurateRip database
Copy OK
Track 4
Filename C:\EACRips\Peter Brцtzmann & Shoji Hano - 2003 - Funny Rat\04 - Funny Rat 3.wav
Peak level 94.4 %
Track quality 100.0 %
Test CRC 374E6CA6
Copy CRC 374E6CA6
Track not present in AccurateRip database
Copy OK
Track 5
Filename C:\EACRips\Peter Brцtzmann & Shoji Hano - 2003 - Funny Rat\05 - Runny Rat 2.wav
Pre-gap length 0:00:02.60
Peak level 94.4 %
Track quality 100.0 %
Test CRC D9E3862B
Copy CRC D9E3862B
Track not present in AccurateRip database
Copy OK
None of the tracks are present in the AccurateRip database
No errors occurred
End of status report
 
Содержание индексной карты (.CUE)
REM GENRE Jazz
REM DATE 2003
REM DISCID 3D10F905
REM COMMENT "ExactAudioCopy v0.99pb5"
FILE "Peter Brцtzmann & Shoji Hano - 2003 - Funny Rat\01 - Funny Rat 1.wav" WAVE
TRACK 01 AUDIO
INDEX 01 00:00:00
FILE "Peter Brцtzmann & Shoji Hano - 2003 - Funny Rat\02 - Snake and Sheep.wav" WAVE
TRACK 02 AUDIO
INDEX 01 00:00:00
TRACK 03 AUDIO
INDEX 00 11:16:50
FILE "Peter Brцtzmann & Shoji Hano - 2003 - Funny Rat\03 - We All Like Mountain Rabbit.wav" WAVE
INDEX 01 00:00:00
FILE "Peter Brцtzmann & Shoji Hano - 2003 - Funny Rat\04 - Funny Rat 3.wav" WAVE
TRACK 04 AUDIO
INDEX 01 00:00:00
TRACK 05 AUDIO
INDEX 00 05:47:71
FILE "Peter Brцtzmann & Shoji Hano - 2003 - Funny Rat\05 - Runny Rat 2.wav" WAVE
INDEX 01 00:00:00
 
Лог проверки качества
AUDIOCHECKER v2.0 beta (build 457) - by Dester - opdester@freemail.hu
~~~~~~~~~~~~~~~~~~~~~~~~~~~~~~~~~~
-=== DO NOT EDIT THIS FILE! ===-
Path: ...\peter brotzmann shoji hano - 2003 - funny rat
1 -=- 01 - Funny Rat 1.flac -=- CDDA (100%)
2 -=- 02 - Snake and Sheep.flac -=- CDDA (99%)
3 -=- 03 - We All Like Mountain Rabbit.flac -=- CDDA (100%)
4 -=- 04 - Funny Rat 3.flac -=- CDDA (100%)
5 -=- 05 - Runny Rat 2.flac -=- CDDA (100%)
Summary 99,80% CDDA
182371060
 
Состав
Peter Brötzmann: tarogato, bass clarinet, tenor saxophone
Shoji Hano: drums, percussion
Any questions -> support@pro-jazz.com. По всем вопросам пишите -> support@pro-jazz.com
13:16
168
Нет комментариев. Ваш будет первым!