Вы используете незарегистрированную версию компонента "Вкладки"!

Поиск

(Free Jazz, Noise Music, Punk Jazz) [CD] Brötzmann & Laswell (Brotzmann) - Low Life + Last Exit - 2007, FLAC (tracks+.cue), lossless

(Free Jazz, Noise Music, Punk Jazz) [CD] Brötzmann & Laswell (Brotzmann) - Low Life + Last Exit - 2007, FLAC (tracks+.cue), lossless
Треклист:
Brötzmann & Laswell / Low Life + Last Exit
Жанр: Free Jazz, Noise Music, Punk Jazz
Носитель: CD
Страна-производитель диска: Germany
Год издания: 2007
Издатель (лейбл): Jazzwerkstatt
Номер по каталогу: W 012
Аудиокодек: FLAC (*.flac)
Тип рипа: tracks+.cue
Битрейт аудио: lossless
Продолжительность: 01:11:43
Источник (релизер): What.cd, m0thra
Наличие сканов в содержимом раздачи: нет
Треклист:
Low Life
01. Death Rattle 4:28
02. Low Life 3:33
03. Disengage 3:01
04. Locomotive 3:43
05. Wheeling Vultures 3:52
06. Curved Dog 1:34
07. Abasement 1:39
08. Land One 8:10
09. Tingle Hairs 4:13
10. The Last Detective 2:33
Last Exit
11. Hard School 19:05
12. Brain Damage 6:20
13. Last Call 4:27
14. Dark Heart 6:35

 
Album Info
Companies etc
Recorded At – BC Studio
Mixed At – BC Studio
Mixed At – Quad Recording Studios
Credits
Bass – Bill Laswell
Bass Saxophone – Peter Brötzmann (tracks: 1 to 10)
Drums, Voice – Ronald Shannon Jackson (tracks: 11 to 14)
Guitar – Sonny Sharrock (tracks: 11 to 14)
Mixed By – Bob Musso* (tracks: 11 to 14)
Recorded By, Mixed By – Martin Bisi (tracks: 1 to 10)
Reissue Producer – Ulli Blobel
Tenor Saxophone – Peter Brötzmann
Notes
This album was released twice before: as ITM 1446 (Last Exit) and CELD 5016 (Low Life).
Tracks 1-10 recorded and mixed by Martin Bisi at B.C. Studio / Brooklyn, NY / Jan 3, 4, 5, 6 1987
Tracks 11-14 recorded on 16 track TASCAM / Köln / Germany / Feb 12 1986 / Mixed by Bob Musso at Quad Recordings
 
Logs
 
Лог создания рипа
Exact Audio Copy V1.0 beta 3 from 29. August 2011
EAC extraction logfile from 19. August 2014, 17:00
Peter Brötzmann & Bill Laswell / Low Life / Last Exit
Used drive : ASUS DRW-24B5ST Adapter: 0 ID: 0
Read mode : Secure
Utilize accurate stream : Yes
Defeat audio cache : Yes
Make use of C2 pointers : No
Read offset correction : 6
Overread into Lead-In and Lead-Out : No
Fill up missing offset samples with silence : Yes
Delete leading and trailing silent blocks : No
Null samples used in CRC calculations : Yes
Used interface : Native Win32 interface for Win NT & 2000
Gap handling : Appended to previous track
Used output format : User Defined Encoder
Selected bitrate : 1024 kBit/s
Quality : High
Add ID3 tag : No
Command line compressor : C:\Program Files (x86)\Exact Audio Copy\Flac\flac.exe
Additional command line options : -8 -V -T "ARTIST=%artist%" -T "TITLE=%title%" -T "ALBUM=%albumtitle%" -T "DATE=%year%" -T "TRACKNUMBER=%tracknr%" -T "GENRE=%genre%" -T "PERFORMER=%albuminterpret%" -T "COMPOSER=%composer%" %haslyrics%--tag-from-file=LYRICS="%lyricsfile%"%haslyrics% -T "ALBUMARTIST=%albumartist%" -T "DISCNUMBER=%cdnumber%" -T "TOTALDISCS=%totalcds%" -T "TOTALTRACKS=%numtracks%" -T "COMMENT=%comment%" %source% -o %dest%
TOC of the extracted CD
Track | Start | Length | Start sector | End sector
---------------------------------------------------------
1 | 0:00.00 | 4:26.09 | 0 | 19958
2 | 4:26.09 | 3:30.14 | 19959 | 35722
3 | 7:56.23 | 3:00.55 | 35723 | 49277
4 | 10:57.03 | 3:42.18 | 49278 | 65945
5 | 14:39.21 | 3:51.55 | 65946 | 83325
6 | 18:31.01 | 1:34.18 | 83326 | 90393
7 | 20:05.19 | 1:39.47 | 90394 | 97865
8 | 21:44.66 | 8:10.43 | 97866 | 134658
9 | 29:55.34 | 4:11.14 | 134659 | 153497
10 | 34:06.48 | 2:32.26 | 153498 | 164923
11 | 36:38.74 | 18:21.07 | 164924 | 247505
12 | 55:00.06 | 6:04.70 | 247506 | 274875
13 | 61:05.01 | 4:17.03 | 274876 | 294153
14 | 65:22.04 | 6:21.60 | 294154 | 322788
Track 1
Filename C:\cd\01 - Peter Brötzmann & Bill Laswell - Death Rattle.wav
Pre-gap length 0:00:02.00
Peak level 86.6 %
Extraction speed 1.6 X
Track quality 99.9 %
Test CRC 526B7EF8
Copy CRC 526B7EF8
Accurately ripped (confidence 2) [0AB0E81E] (AR v2)
Copy OK
Track 2
Filename C:\cd\02 - Peter Brötzmann & Bill Laswell - Low Life.wav
Peak level 91.2 %
Extraction speed 2.1 X
Track quality 100.0 %
Test CRC 23A7973A
Copy CRC 23A7973A
Accurately ripped (confidence 2) [B9DE2899] (AR v2)
Copy OK
Track 3
Filename C:\cd\03 - Peter Brötzmann & Bill Laswell - Disengage.wav
Peak level 91.8 %
Extraction speed 2.2 X
Track quality 100.0 %
Test CRC C1FBB1FC
Copy CRC C1FBB1FC
Accurately ripped (confidence 2) [FAFAE278] (AR v2)
Copy OK
Track 4
Filename C:\cd\04 - Peter Brötzmann & Bill Laswell - Locomotive.wav
Peak level 82.4 %
Extraction speed 2.5 X
Track quality 100.0 %
Test CRC 284A0650
Copy CRC 284A0650
Accurately ripped (confidence 2) [680FFA76] (AR v2)
Copy OK
Track 5
Filename C:\cd\05 - Peter Brötzmann & Bill Laswell - Wheeling Vultures.wav
Peak level 82.9 %
Extraction speed 1.9 X
Track quality 99.9 %
Test CRC D41660C9
Copy CRC D41660C9
Accurately ripped (confidence 2) [AD914576] (AR v2)
Copy OK
Track 6
Filename C:\cd\06 - Peter Brötzmann & Bill Laswell - Curved Dog.wav
Peak level 71.8 %
Extraction speed 1.2 X
Track quality 99.8 %
Test CRC 7A47DCC8
Copy CRC 7A47DCC8
Accurately ripped (confidence 2) [35521027] (AR v2)
Copy OK
Track 7
Filename C:\cd\07 - Peter Brötzmann & Bill Laswell - Abasement.wav
Peak level 100.0 %
Extraction speed 2.4 X
Track quality 100.0 %
Test CRC DB7DCF55
Copy CRC DB7DCF55
Accurately ripped (confidence 2) [CF1504BB] (AR v2)
Copy OK
Track 8
Filename C:\cd\08 - Peter Brötzmann & Bill Laswell - Land One.wav
Peak level 82.9 %
Extraction speed 3.2 X
Track quality 100.0 %
Test CRC AC626065
Copy CRC AC626065
Accurately ripped (confidence 5) [532F0948] (AR v1)
Copy OK
Track 9
Filename C:\cd\09 - Peter Brötzmann & Bill Laswell - Tingle Hairs.wav
Peak level 69.5 %
Extraction speed 3.2 X
Track quality 100.0 %
Test CRC 67D2BDA9
Copy CRC 67D2BDA9
Accurately ripped (confidence 2) [F043E68C] (AR v2)
Copy OK
Track 10
Filename C:\cd\10 - Peter Brötzmann & Bill Laswell - The Last Detective.wav
Peak level 66.9 %
Extraction speed 3.1 X
Track quality 100.0 %
Test CRC A928132D
Copy CRC A928132D
Accurately ripped (confidence 5) [03605CDD] (AR v1)
Copy OK
Track 11
Filename C:\cd\11 - Last Exit - Hard School.wav
Peak level 100.0 %
Extraction speed 4.1 X
Track quality 100.0 %
Test CRC 5E7AE30C
Copy CRC 5E7AE30C
Accurately ripped (confidence 4) [F9B6A957] (AR v1)
Copy OK
Track 12
Filename C:\cd\12 - Last Exit - Brain Damage.wav
Peak level 72.6 %
Extraction speed 4.2 X
Track quality 100.0 %
Test CRC 45CC3FAE
Copy CRC 45CC3FAE
Accurately ripped (confidence 2) [EA070560] (AR v2)
Copy OK
Track 13
Filename C:\cd\13 - Last Exit - Last Call.wav
Peak level 85.8 %
Extraction speed 4.1 X
Track quality 100.0 %
Test CRC CA984B53
Copy CRC CA984B53
Accurately ripped (confidence 2) [214EC9BA] (AR v2)
Copy OK
Track 14
Filename C:\cd\14 - Last Exit - Dark Heart.wav
Peak level 88.6 %
Extraction speed 3.5 X
Track quality 99.9 %
Test CRC E48FFD30
Copy CRC E48FFD30
Accurately ripped (confidence 2) [8F46FEB5] (AR v2)
Copy OK
All tracks accurately ripped
No errors occurred
End of status report
---- CUETools DB Plugin V2.1.3
[CTDB TOCID: aA98.ZiRQAl52C8E2TY96YBBBTM-] found, Submit result: aA98.ZiRQAl52C8E2TY96YBBBTM- has been confirmed
[d884034e] (4/4) Accurately ripped
==== Log checksum EFBE0D82E41A110E24A7FA0A2A37700E229C5EEF1812946F0251BA4AA8196815 ====
 
Содержание индексной карты (.CUE)
REM DATE 2007
REM DISCID BE10CF0E
REM COMMENT "ExactAudioCopy v1.0b3"
PERFORMER "Peter Brötzmann & Bill Laswell"
TITLE "Low Life / Last Exit"
FILE "01 - Peter Brötzmann & Bill Laswell - Death Rattle.wav" WAVE
TRACK 01 AUDIO
TITLE "Death Rattle"
PERFORMER "Peter Brötzmann & Bill Laswell"
INDEX 01 00:00:00
FILE "02 - Peter Brötzmann & Bill Laswell - Low Life.wav" WAVE
TRACK 02 AUDIO
TITLE "Low Life"
PERFORMER "Peter Brötzmann & Bill Laswell"
INDEX 01 00:00:00
FILE "03 - Peter Brötzmann & Bill Laswell - Disengage.wav" WAVE
TRACK 03 AUDIO
TITLE "Disengage"
PERFORMER "Peter Brötzmann & Bill Laswell"
INDEX 01 00:00:00
FILE "04 - Peter Brötzmann & Bill Laswell - Locomotive.wav" WAVE
TRACK 04 AUDIO
TITLE "Locomotive"
PERFORMER "Peter Brötzmann & Bill Laswell"
INDEX 01 00:00:00
FILE "05 - Peter Brötzmann & Bill Laswell - Wheeling Vultures.wav" WAVE
TRACK 05 AUDIO
TITLE "Wheeling Vultures"
PERFORMER "Peter Brötzmann & Bill Laswell"
INDEX 01 00:00:00
FILE "06 - Peter Brötzmann & Bill Laswell - Curved Dog.wav" WAVE
TRACK 06 AUDIO
TITLE "Curved Dog"
PERFORMER "Peter Brötzmann & Bill Laswell"
INDEX 01 00:00:00
FILE "07 - Peter Brötzmann & Bill Laswell - Abasement.wav" WAVE
TRACK 07 AUDIO
TITLE "Abasement"
PERFORMER "Peter Brötzmann & Bill Laswell"
INDEX 01 00:00:00
FILE "07 - Peter Brötzmann & Bill Laswell - Abasement.wav" WAVE
TRACK 08 AUDIO
TITLE "Land One"
PERFORMER "Peter Brötzmann & Bill Laswell"
INDEX 01 00:00:00
FILE "09 - Peter Brötzmann & Bill Laswell - Tingle Hairs.wav" WAVE
TRACK 09 AUDIO
TITLE "Tingle Hairs"
PERFORMER "Peter Brötzmann & Bill Laswell"
INDEX 01 00:00:00
FILE "10 - Peter Brötzmann & Bill Laswell - The Last Detective.wav" WAVE
TRACK 10 AUDIO
TITLE "The Last Detective"
PERFORMER "Peter Brötzmann & Bill Laswell"
INDEX 01 00:00:00
FILE "11 - Last Exit - Hard School.wav" WAVE
TRACK 11 AUDIO
TITLE "Hard School"
PERFORMER "Last Exit"
INDEX 01 00:00:00
FILE "12 - Last Exit - Brain Damage.wav" WAVE
TRACK 12 AUDIO
TITLE "Brain Damage"
PERFORMER "Last Exit"
INDEX 01 00:00:00
FILE "13 - Last Exit - Last Call.wav" WAVE
TRACK 13 AUDIO
TITLE "Last Call"
PERFORMER "Last Exit"
INDEX 01 00:00:00
FILE "14 - Last Exit - Dark Heart.wav" WAVE
TRACK 14 AUDIO
TITLE "Dark Heart"
PERFORMER "Last Exit"
INDEX 01 00:00:00
 
Лог проверки качества
fooCDtect - foobar2000 + auCDtect, baralgin.
auCDtect: CD records authenticity detector, version 0.8.2
Copyright (c) 2004 Oleg Berngardt. All rights reserved.
Copyright (c) 2004 Alexander Djourik. All rights reserved.
mode: 0
===========================================
Track: 01. Death Rattle
Quality: CDDA 100%
===========================================
Track: 02. Low Life
Quality: CDDA 100%
===========================================
Track: 03. Disengage
Quality: CDDA 100%
===========================================
Track: 04. Locomotive
Quality: CDDA 100%
===========================================
Track: 05. Wheeling Vultures
Quality: CDDA 100%
===========================================
Track: 06. Curved Dog
Quality: CDDA 100%
===========================================
Track: 07. Abasement
Quality: CDDA 100%
===========================================
Track: 08. Land One
Quality: CDDA 100%
===========================================
Track: 09. Tingle Hairs
Quality: CDDA 100%
===========================================
Track: 10. The Last Detective
Quality: CDDA 100%
===========================================
Track: 11. Hard School
Quality: CDDA 100%
===========================================
Track: 12. Brain Damage
Quality: CDDA 99%
===========================================
Track: 13. Last Call
Quality: CDDA 100%
===========================================
Track: 14. Dark Heart
Quality: CDDA 100%
===========================================
 
Скриншот спектра частот
По всем вопросам пишите личное сообщение пользователю M0p94ok.
04:03
197
Нет комментариев. Ваш будет первым!