Вы используете незарегистрированную версию компонента "Вкладки"!

Поиск

(Modern Creative, Progressive Jazz) [CD] Phronesis - Green Delay - 2009, FLAC (tracks+.cue), lossless

(Modern Creative, Progressive Jazz) [CD] Phronesis - Green Delay - 2009, FLAC (tracks+.cue), lossless
Треклист:
Phronesis - Green Delay
Жанр: Modern Creative, Progressive Jazz
Носитель: CD
Год издания: 2009
Издатель (лейбл): Loop Records
Номер по каталогу: LOOP1008
Аудиокодек: FLAC (*.flac)
Тип рипа: tracks+.cue
Битрейт аудио: lossless
Продолжительность: 58:44
Источник (релизер): ruskaval
Наличие сканов в содержимом раздачи: да
Треклист:
01. Abraham's New Gift (7:12)
02. Blue Inspiration (7:36)
03. Blackout (6:00)
04. Green Delay (5:43)
05. Rue Cinq Diamants (5:09)
06. Love Song (9:00)
07. Happy Notes (7:09)
08. Five Songs Six Words (5:08)
09. Summersault (5:47)
Personnel:
Jasper Høiby - b
Ivo Neame - p
Anton Eger - d
 
 
Лог создания рипа
Exact Audio Copy V1.0 beta 3 from 29. August 2011
EAC extraction logfile from 10. August 2014, 12:38
Phronesis / Green Delay
Used drive : ATAPI iHAS124 B Adapter: 2 ID: 1
Read mode : Secure
Utilize accurate stream : Yes
Defeat audio cache : Yes
Make use of C2 pointers : No
Read offset correction : 6
Overread into Lead-In and Lead-Out : No
Fill up missing offset samples with silence : Yes
Delete leading and trailing silent blocks : No
Null samples used in CRC calculations : Yes
Used interface : Native Win32 interface for Win NT & 2000
Gap handling : Appended to previous track
Used output format : User Defined Encoder
Selected bitrate : 1024 kBit/s
Quality : High
Add ID3 tag : No
Command line compressor : C:\Program Files (x86)\FLAC Frontend\tools\flac.exe
Additional command line options : -8 -V -T "ARTIST=%artist%" -T "TITLE=%title%" -T "ALBUM=%albumtitle%" -T "DATE=%year%" -T "TRACKNUMBER=%tracknr%" -T "TOTALTRACKS=%numtracks%" -T "GENRE=%genre%" -T "ALBUMARTIST=%albumartist%" -T "ALBUM ARTIST=%albumartist%" -T "COMMENT=EAC Secure Mode, Test & Copy, AccurateRip, FLAC -8" %source%
TOC of the extracted CD
Track | Start | Length | Start sector | End sector
---------------------------------------------------------
1 | 0:00.00 | 7:12.32 | 0 | 32431
2 | 7:12.32 | 7:35.74 | 32432 | 66630
3 | 14:48.31 | 6:00.17 | 66631 | 93647
4 | 20:48.48 | 5:42.42 | 93648 | 119339
5 | 26:31.15 | 5:08.74 | 119340 | 142513
6 | 31:40.14 | 8:59.40 | 142514 | 182978
7 | 40:39.54 | 7:08.73 | 182979 | 215151
8 | 47:48.52 | 5:08.20 | 215152 | 238271
9 | 52:56.72 | 5:46.55 | 238272 | 264276
Track 1
Filename C:\Phronesis - Green Delay (2009) {Loop Records}\01 - Abraham's New Gift.wav
Pre-gap length 0:00:02.00
Peak level 100.0 %
Extraction speed 4.0 X
Track quality 100.0 %
Test CRC 3617813C
Copy CRC 3617813C
Track not present in AccurateRip database
Copy OK
Track 2
Filename C:\Phronesis - Green Delay (2009) {Loop Records}\02 - Blue Inspiration.wav
Pre-gap length 0:00:02.00
Peak level 100.0 %
Extraction speed 4.8 X
Track quality 100.0 %
Test CRC D82DB6B3
Copy CRC D82DB6B3
Track not present in AccurateRip database
Copy OK
Track 3
Filename C:\Phronesis - Green Delay (2009) {Loop Records}\03 - Blackout.wav
Pre-gap length 0:00:02.00
Peak level 100.0 %
Extraction speed 4.4 X
Track quality 99.9 %
Test CRC 1CE3EF2F
Copy CRC 1CE3EF2F
Track not present in AccurateRip database
Copy OK
Track 4
Filename C:\Phronesis - Green Delay (2009) {Loop Records}\04 - Green Delay.wav
Pre-gap length 0:00:02.00
Peak level 100.0 %
Extraction speed 5.6 X
Track quality 100.0 %
Test CRC 0D088748
Copy CRC 0D088748
Track not present in AccurateRip database
Copy OK
Track 5
Filename C:\Phronesis - Green Delay (2009) {Loop Records}\05 - Rue Cinq Diamants.wav
Pre-gap length 0:00:02.00
Peak level 100.0 %
Extraction speed 5.9 X
Track quality 100.0 %
Test CRC 4990F8EB
Copy CRC 4990F8EB
Track not present in AccurateRip database
Copy OK
Track 6
Filename C:\Phronesis - Green Delay (2009) {Loop Records}\06 - Love Song.wav
Pre-gap length 0:00:02.00
Peak level 100.0 %
Extraction speed 6.7 X
Track quality 100.0 %
Test CRC 1C3C68EE
Copy CRC 1C3C68EE
Track not present in AccurateRip database
Copy OK
Track 7
Filename C:\Phronesis - Green Delay (2009) {Loop Records}\07 - Happy Notes.wav
Pre-gap length 0:00:02.00
Peak level 100.0 %
Extraction speed 7.0 X
Track quality 100.0 %
Test CRC AA089CB4
Copy CRC AA089CB4
Track not present in AccurateRip database
Copy OK
Track 8
Filename C:\Phronesis - Green Delay (2009) {Loop Records}\08 - Five Songs Six Words.wav
Pre-gap length 0:00:02.00
Peak level 100.0 %
Extraction speed 7.1 X
Track quality 100.0 %
Test CRC 7B62571E
Copy CRC 7B62571E
Track not present in AccurateRip database
Copy OK
Track 9
Filename C:\Phronesis - Green Delay (2009) {Loop Records}\09 - Summersault.wav
Pre-gap length 0:00:13.00
Peak level 100.0 %
Extraction speed 7.5 X
Track quality 100.0 %
Test CRC 7CC10C2E
Copy CRC 7CC10C2E
Track not present in AccurateRip database
Copy OK
None of the tracks are present in the AccurateRip database
No errors occurred
End of status report
==== Log checksum 37F8AF46DDD7A6A8485F5E3B420B703AFB87A02A58E550A4DCEC257EA3C85145 ====
 
Содержание индексной карты (.CUE)
REM GENRE Jazz
REM DATE 2009
REM DISCID 730DC309
REM COMMENT "ExactAudioCopy v1.0b3"
PERFORMER "Phronesis"
TITLE "Green Delay"
FILE "01 - Abraham's New Gift.wav" WAVE
TRACK 01 AUDIO
TITLE "Abraham's New Gift"
PERFORMER "Phronesis"
INDEX 01 00:00:00
TRACK 02 AUDIO
TITLE "Blue Inspiration"
PERFORMER "Phronesis"
INDEX 00 07:10:32
FILE "02 - Blue Inspiration.wav" WAVE
INDEX 01 00:00:00
TRACK 03 AUDIO
TITLE "Blackout"
PERFORMER "Phronesis"
INDEX 00 07:33:74
FILE "03 - Blackout.wav" WAVE
INDEX 01 00:00:00
TRACK 04 AUDIO
TITLE "Green Delay"
PERFORMER "Phronesis"
INDEX 00 05:58:17
FILE "04 - Green Delay.wav" WAVE
INDEX 01 00:00:00
TRACK 05 AUDIO
TITLE "Rue Cinq Diamants"
PERFORMER "Phronesis"
INDEX 00 05:40:42
FILE "05 - Rue Cinq Diamants.wav" WAVE
INDEX 01 00:00:00
TRACK 06 AUDIO
TITLE "Love Song"
PERFORMER "Phronesis"
INDEX 00 05:06:74
FILE "06 - Love Song.wav" WAVE
INDEX 01 00:00:00
TRACK 07 AUDIO
TITLE "Happy Notes"
PERFORMER "Phronesis"
INDEX 00 08:57:40
FILE "07 - Happy Notes.wav" WAVE
INDEX 01 00:00:00
TRACK 08 AUDIO
TITLE "Five Songs Six Words"
PERFORMER "Phronesis"
INDEX 00 07:06:73
FILE "08 - Five Songs Six Words.wav" WAVE
INDEX 01 00:00:00
TRACK 09 AUDIO
TITLE "Summersault"
PERFORMER "Phronesis"
INDEX 00 04:55:20
FILE "09 - Summersault.wav" WAVE
INDEX 01 00:00:00
По всем вопросам пишите личное сообщение пользователю M0p94ok.
04:04
166
Нет комментариев. Ваш будет первым!