Вы используете незарегистрированную версию компонента "Вкладки"!

Поиск

(Free Jazz) [cd] Return of the New Thing - Alchemy 2008, FLAC (tracks+.cue), lossless

(Free Jazz) [cd] Return of the New Thing - Alchemy 2008, FLAC (tracks+.cue), lossless
Треклист:
(Free Jazz) [cd] Return of the New Thing - Alchemy 2008, FLAC (tracks+.cue), lossless


Return of the New Thing - Alchemy 2008

Жанр: Free Jazz
Год выпуска: 2008
Издатель (лейбл):Not Two Records/ MW 796-2
Формат: FLAC (tracks+.cue)
Битрейт аудио: lossless
Продолжительность 1`11`12
Источник: nnm, mishka1981

tracks

1 29’09” 29:09
2 24’41” 24:41
3 17’22” 17:22


 
.log
Exact Audio Copy V1.0 beta 1 from 15. November 2010
EAC extraction logfile from 16. August 2014, 14:47
Return Of The New Thing / Alchemy
Used drive : Optiarc DVD RW AD-7710H Adapter: 1 ID: 0
Read mode : Secure
Utilize accurate stream : Yes
Defeat audio cache : Yes
Make use of C2 pointers : No
Read offset correction : 48
Overread into Lead-In and Lead-Out : No
Fill up missing offset samples with silence : Yes
Delete leading and trailing silent blocks : No
Null samples used in CRC calculations : Yes
Used interface : Native Win32 interface for Win NT & 2000
Gap handling : Appended to previous track
Used output format : User Defined Encoder
Selected bitrate : 896 kBit/s
Quality : High
Add ID3 tag : No
Command line compressor : C:\Program Files\Exact Audio Copy\FLAC\FLAC.EXE
Additional command line options : -8 -V -T "ARTIST=%a" -T "TITLE=%t" -T "ALBUM=%g" -T "DATE=%y" -T "TRACKNUMBER=%n" -T "GENRE=%m" -T "COMMENT=%e" %j--picture="%i"%j %s -o %d
TOC of the extracted CD
Track | Start | Length | Start sector | End sector
---------------------------------------------------------
1 | 0:00.00 | 29:09.29 | 0 | 131203
2 | 29:09.29 | 24:41.36 | 131204 | 242314
3 | 53:50.65 | 17:20.54 | 242315 | 320368
Track 1
Filename C:\MY RIPS\01 - 1.wav
Pre-gap length 0:00:02.00
Peak level 99.4 %
Extraction speed 4.0 X
Track quality 100.0 %
Test CRC E8C0752B
Copy CRC E8C0752B
Accurately ripped (confidence 1) [5596E743]
Copy OK
Track 2
Filename C:\MY RIPS\02 - 2.wav
Peak level 99.4 %
Extraction speed 5.5 X
Track quality 100.0 %
Test CRC 375BF29E
Copy CRC 375BF29E
Accurately ripped (confidence 1) [8D4AAEA0]
Copy OK
Track 3
Filename C:\MY RIPS\03 - 3.wav
Peak level 99.4 %
Extraction speed 3.3 X
Track quality 99.9 %
Test CRC 3D35C13F
Copy CRC 3D35C13F
Accurately ripped (confidence 1) [B4C33398]
Copy OK
All tracks accurately ripped
No errors occurred
End of status report
==== Log checksum C35BCD328F588E25BDC82E75FCD3117DC636B83C9D80EDF3C9DECE9DB26474D3 ====
 
.cue
REM DISCID 1A10AF03
REM COMMENT "ExactAudioCopy v1.0b1"
PERFORMER "Return Of The New Thing"
TITLE "Alchemy"
FILE "01 - 1.wav" WAVE
TRACK 01 AUDIO
TITLE "1"
PERFORMER "Return Of The New Thing"
INDEX 01 00:00:00
FILE "02 - 2.wav" WAVE
TRACK 02 AUDIO
TITLE "2"
PERFORMER "Return Of The New Thing"
INDEX 01 00:00:00
FILE "03 - 3.wav" WAVE
TRACK 03 AUDIO
TITLE "3"
PERFORMER "Return Of The New Thing"
INDEX 01 00:00:00

http://www.discogs.com/Return-Of-The-New-Thing-Alchemy/release/2561863
другие релизы
По всем вопросам пишите личное сообщение пользователю M0p94ok.
04:02
164
Нет комментариев. Ваш будет первым!