Вы используете незарегистрированную версию компонента "Вкладки"!

Поиск

(free jazz) Nils Wogram Septet - Swing Moral 2005, FLAC (tracks+.cue), lossless

(free jazz) Nils Wogram Septet - Swing Moral 2005, FLAC (tracks+.cue), lossless
Треклист:


Nils Wogram Septet - Swing Moral 2005

Жанр: free jazz
Год выпуска: 2005
Издатель (лейбл):Enja
Формат: FLAC (tracks+.cue)
Битрейт аудио: lossless
Продолжительность 1`09`38
Источник: nnm, mishka1981
Stephan Meinberg (tp) Nils Wogram (tb) Tilman Ehrhorn (ts) Frank Speer (as) Steffen Schorrn (bars, bcl) Claudio Puntin (cl) John Schröder (d)

tracks

1 Swing Moral 6:06
2 The Storm 9:25
3 Arnie's Blues 10:04
4 Pancho 7:26
5 Woods Contemplation 8:16
6 Have You Been To The States 8:49
7 Take Me Back 8:11
8 Eccentric Personality 4:25
9 Time Machine 6:12


 
.log
Exact Audio Copy V1.0 beta 1 from 15. November 2010
EAC extraction logfile from 9. December 2012, 14:49
Nils Wogram Septet / Swing Moral
Used drive : TSSTcorpCDDVDW TS-L633A Adapter: 3 ID: 0
Read mode : Secure
Utilize accurate stream : Yes
Defeat audio cache : Yes
Make use of C2 pointers : No
Read offset correction : 6
Overread into Lead-In and Lead-Out : No
Fill up missing offset samples with silence : Yes
Delete leading and trailing silent blocks : No
Null samples used in CRC calculations : Yes
Used interface : Installed external ASPI interface
Gap handling : Appended to previous track
Used output format : User Defined Encoder
Selected bitrate : 896 kBit/s
Quality : High
Add ID3 tag : No
Command line compressor : C:\Program Files\Exact Audio Copy\FLAC\FLAC.EXE
Additional command line options : -8 -V -T "ARTIST=%a" -T "TITLE=%t" -T "ALBUM=%g" -T "DATE=%y" -T "TRACKNUMBER=%n" -T "TOTALTRACKS=%x" -T "GENRE=%m" -T "ALBUMARTIST=%v" -T "ALBUM ARTIST=%v" -T "COMMENT=EAC Secure Mode, Test & Copy, AccurateRip, FLAC -8" %s
TOC of the extracted CD
Track | Start | Length | Start sector | End sector
---------------------------------------------------------
1 | 0:00.00 | 6:10.55 | 0 | 27804
2 | 6:10.55 | 9:30.07 | 27805 | 70561
3 | 15:40.62 | 10:09.45 | 70562 | 116281
4 | 25:50.32 | 7:31.05 | 116282 | 150111
5 | 33:21.37 | 8:21.43 | 150112 | 187729
6 | 41:43.05 | 8:55.62 | 187730 | 227916
7 | 50:38.67 | 8:17.33 | 227917 | 265224
8 | 58:56.25 | 4:28.37 | 265225 | 285361
9 | 63:24.62 | 6:13.13 | 285362 | 313349
Track 1
Filename C:\MY RIPS\01 - Swing Moral.wav
Pre-gap length 0:00:02.00
Peak level 97.2 %
Extraction speed 1.2 X
Track quality 100.0 %
Test CRC 43638A3E
Copy CRC 43638A3E
Accurately ripped (confidence 3) [F471AA0C]
Copy OK
Track 2
Filename C:\MY RIPS\02 - The Storm.wav
Pre-gap length 0:00:03.60
Peak level 98.3 %
Extraction speed 1.5 X
Track quality 100.0 %
Test CRC BBDECB3D
Copy CRC BBDECB3D
Accurately ripped (confidence 3) [7A574B46]
Copy OK
Track 3
Filename C:\MY RIPS\03 - Arnie's Blues.wav
Pre-gap length 0:00:04.12
Peak level 96.6 %
Extraction speed 1.7 X
Track quality 100.0 %
Test CRC 465D876A
Copy CRC 465D876A
Accurately ripped (confidence 3) [4C5C88BE]
Copy OK
Track 4
Filename C:\MY RIPS\04 - Pancho.wav
Pre-gap length 0:00:04.17
Peak level 97.8 %
Extraction speed 1.9 X
Track quality 100.0 %
Test CRC F2EA0B15
Copy CRC F2EA0B15
Accurately ripped (confidence 3) [4FD0BEA6]
Copy OK
Track 5
Filename C:\MY RIPS\05 - Woods Contemplation.wav
Pre-gap length 0:00:04.05
Peak level 97.3 %
Extraction speed 2.0 X
Track quality 100.0 %
Test CRC 134708DE
Copy CRC 134708DE
Accurately ripped (confidence 3) [3CC45AA4]
Copy OK
Track 6
Filename C:\MY RIPS\06 - Have You Been To The States.wav
Pre-gap length 0:00:04.05
Peak level 96.3 %
Extraction speed 2.2 X
Track quality 100.0 %
Test CRC 587195ED
Copy CRC 587195ED
Accurately ripped (confidence 3) [B080D82B]
Copy OK
Track 7
Filename C:\MY RIPS\07 - Take Me Back.wav
Pre-gap length 0:00:05.47
Peak level 95.1 %
Extraction speed 1.8 X
Track quality 99.9 %
Test CRC 4DF57310
Copy CRC 4DF57310
Accurately ripped (confidence 3) [F61ACB9F]
Copy OK
Track 8
Filename C:\MY RIPS\08 - Eccentric Personality.wav
Pre-gap length 0:00:05.10
Peak level 98.1 %
Extraction speed 2.2 X
Track quality 100.0 %
Test CRC D2A1AD42
Copy CRC D2A1AD42
Accurately ripped (confidence 3) [F70DADE3]
Copy OK
Track 9
Filename C:\MY RIPS\09 - Time Machine.wav
Pre-gap length 0:00:02.67
Peak level 95.1 %
Extraction speed 2.4 X
Track quality 100.0 %
Test CRC 28445FA3
Copy CRC 28445FA3
Accurately ripped (confidence 3) [FB247FB6]
Copy OK
All tracks accurately ripped
No errors occurred
End of status report
==== Log checksum 8BE4447B618FEDD7441436CDBFFEED89552BF683585080284C1ADD184BDD793F ====
 
.cue
REM GENRE Jazz
REM DATE 2005
REM DISCID 66105209
REM COMMENT "ExactAudioCopy v1.0b1"
PERFORMER "Nils Wogram Septet"
TITLE "Swing Moral"
FILE "01 - Swing Moral.wav" WAVE
TRACK 01 AUDIO
TITLE "Swing Moral"
PERFORMER "Nils Wogram Septet"
INDEX 01 00:00:00
TRACK 02 AUDIO
TITLE "The Storm"
PERFORMER "Nils Wogram Septet"
INDEX 00 06:06:70
FILE "02 - The Storm.wav" WAVE
INDEX 01 00:00:00
TRACK 03 AUDIO
TITLE "Arnie's Blues"
PERFORMER "Nils Wogram Septet"
INDEX 00 09:25:70
FILE "03 - Arnie's Blues.wav" WAVE
INDEX 01 00:00:00
TRACK 04 AUDIO
TITLE "Pancho"
PERFORMER "Nils Wogram Septet"
INDEX 00 10:05:28
FILE "04 - Pancho.wav" WAVE
INDEX 01 00:00:00
TRACK 05 AUDIO
TITLE "Woods Contemplation"
PERFORMER "Nils Wogram Septet"
INDEX 00 07:27:00
FILE "05 - Woods Contemplation.wav" WAVE
INDEX 01 00:00:00
TRACK 06 AUDIO
TITLE "Have You Been To The States"
PERFORMER "Nils Wogram Septet"
INDEX 00 08:17:38
FILE "06 - Have You Been To The States.wav" WAVE
INDEX 01 00:00:00
TRACK 07 AUDIO
TITLE "Take Me Back"
PERFORMER "Nils Wogram Septet"
INDEX 00 08:50:15
FILE "07 - Take Me Back.wav" WAVE
INDEX 01 00:00:00
TRACK 08 AUDIO
TITLE "Eccentric Personality"
PERFORMER "Nils Wogram Septet"
INDEX 00 08:12:23
FILE "08 - Eccentric Personality.wav" WAVE
INDEX 01 00:00:00
TRACK 09 AUDIO
TITLE "Time Machine"
PERFORMER "Nils Wogram Septet"
INDEX 00 04:25:45
FILE "09 - Time Machine.wav" WAVE
INDEX 01 00:00:00
 
.accurip
[CUETools log; Date: 10/12/12 02:15:02; Version: 2.1.2a]
[CTDB TOCID: 2XxstZwLc.iS19g59K_FrL5_9lo-] disk not present in database.
[AccurateRip ID: 00191739-00b789b6-66105209] found.
Track [ CRC ] Status
01 [f471aa0c] (3/3) Accurately ripped
02 [7a574b46] (3/3) Accurately ripped
03 [4c5c88be] (3/3) Accurately ripped
04 [4fd0bea6] (3/3) Accurately ripped
05 [3cc45aa4] (3/3) Accurately ripped
06 [b080d82b] (3/3) Accurately ripped
07 [f61acb9f] (3/3) Accurately ripped
08 [f70dade3] (3/3) Accurately ripped
09 [fb247fb6] (3/3) Accurately ripped
Track Peak [ CRC32 ] [W/O NULL] [ LOG ]
-- 98.3 [DD7A05A5] [076C2D83]
01 97.2 [43638A3E] [83D25BEC] CRC32
02 98.3 [BBDECB3D] [2CA334BA] CRC32
03 96.6 [465D876A] [8F9DFCB3] CRC32
04 97.8 [F2EA0B15] [69B30BD8] CRC32
05 97.3 [134708DE] [8CE7C978] CRC32
06 96.3 [587195ED] [AD69412E] CRC32
07 95.1 [4DF57310] [BA354EE7] CRC32
08 98.1 [D2A1AD42] [C3B6374C] CRC32
09 95.1 [28445FA3] [FE79786B] CRC32

другие релизы
Any questions -> support@pro-jazz.com. По всем вопросам пишите -> support@pro-jazz.com
06:15
154
Нет комментариев. Ваш будет первым!