Вы используете незарегистрированную версию компонента "Вкладки"!

Поиск

(Free Jazz) Charles Gayle Trio (Michael Bisio, Michael Wimberley) - Look Up - 2012, FLAC (image+.cue), lossless

(Free Jazz) Charles Gayle Trio (Michael Bisio, Michael Wimberley) - Look Up - 2012, FLAC (image+.cue), lossless
Треклист:
Charles Gayle Trio / Look Up
Жанр: Free Jazz
Страна-производитель диска: US
Год издания: 2012
Издатель (лейбл): ESP Disk
Номер по каталогу: ESP 4071
Аудиокодек: FLAC (*.flac)
Тип рипа: image+.cue
Битрейт аудио: lossless
Продолжительность: 71:15
Источник (релизер): cd
Наличие сканов в содержимом раздачи: нет
Треклист:
1 Alpha 14:26
2 Homage To Albert Ayler 11:19
3 I Remember Eric Dolphy 14:30
4 In The Name Of The Father 8:25
5 The Book Of Revelation 22:35
 
Лог создания рипа
Exact Audio Copy V1.0 beta 2 from 29. April 2011
EAC extraction logfile from 10. December 2012, 9:51
Charles Gayle Trio / Look Up
Used drive : Optiarc DVD RW AD-7170A Adapter: 0 ID: 0
Read mode : Secure
Utilize accurate stream : Yes
Defeat audio cache : Yes
Make use of C2 pointers : No
Read offset correction : 48
Overread into Lead-In and Lead-Out : No
Fill up missing offset samples with silence : Yes
Delete leading and trailing silent blocks : No
Null samples used in CRC calculations : Yes
Used interface : Native Win32 interface for Win NT & 2000
Used output format : User Defined Encoder
Selected bitrate : 320 kBit/s
Quality : High
Add ID3 tag : No
Command line compressor : C:\Program Files\Exact Audio Copy\Flac\flac.exe
Additional command line options : -V -8 -T "Date=%year%" -T "Genre=%genre%" %source%
TOC of the extracted CD
Track | Start | Length | Start sector | End sector
---------------------------------------------------------
1 | 0:00.00 | 14:25.66 | 0 | 64940
2 | 14:25.66 | 11:18.39 | 64941 | 115829
3 | 25:44.30 | 14:30.43 | 115830 | 181122
4 | 40:14.73 | 8:25.52 | 181123 | 219049
5 | 48:40.50 | 22:34.27 | 219050 | 320626
Range status and errors
Selected range
Filename K:\ЕАС\Charles Gayle Trio - Look Up.wav
Peak level 67.5 %
Extraction speed 2.1 X
Range quality 100.0 %
Test CRC 2D11E81A
Copy CRC 2D11E81A
Copy OK
No errors occurred
AccurateRip summary
Track 1 not present in database
Track 2 not present in database
Track 3 not present in database
Track 4 not present in database
Track 5 not present in database
None of the tracks are present in the AccurateRip database
End of status report
==== Log checksum 4DB68BDEDC157509422B988BD4407F7F0C2DC52A5631AB16958604084F478759 ====
 
Содержание индексной карты (.CUE)
REM GENRE Jazz
REM DATE 2012
REM DISCID 4310B305
REM COMMENT "ExactAudioCopy v1.0b2"
PERFORMER "Charles Gayle Trio"
TITLE "Look Up "
FILE "Charles Gayle Trio - Look Up.flac" WAVE
TRACK 01 AUDIO
TITLE "Alpha "
PERFORMER "Charles Gayle Trio"
ISRC 000000000000
INDEX 01 00:00:00
TRACK 02 AUDIO
TITLE " Homage To Albert Ayler "
PERFORMER "Charles Gayle Trio"
ISRC 000000000000
FLAGS DCP
INDEX 01 14:25:66
TRACK 03 AUDIO
TITLE "I Remember Eric Dolphy "
PERFORMER "Charles Gayle Trio"
ISRC 000000000000
FLAGS DCP
INDEX 01 25:44:30
TRACK 04 AUDIO
TITLE "n The Name Of The Father "
PERFORMER "Charles Gayle Trio"
ISRC 000000000000
FLAGS DCP
INDEX 01 40:14:73
TRACK 05 AUDIO
TITLE " The Book Of Revelation "
PERFORMER "Charles Gayle Trio"
ISRC 000000000000
INDEX 01 48:40:50
Доп. информация: Recorded live in Santa Barbara, California.
 
Состав
Double Bass – Michael Bisio
Drums – Michael Wimberley
Tenor Saxophone – Charles Gayle
Any questions -> support@pro-jazz.com. По всем вопросам пишите -> support@pro-jazz.com
06:16
141
Нет комментариев. Ваш будет первым!